<?xml version="1.0" standalone="no"?>
<!DOCTYPE svg PUBLIC "-//W3C//DTD SVG 1.1//EN" "http://www.w3.org/Graphics/SVG/1.1/DTD/svg11.dtd" >
<svg xmlns="http://www.w3.org/2000/svg">
<metadata>Generated by IcoMoon</metadata>
<defs>
<font id="font-icons-psel" horiz-adv-x="1024">
<font-face units-per-em="1024" ascent="960" descent="-64" />
<missing-glyph horiz-adv-x="1024" />
<glyph unicode="&#x20;" horiz-adv-x="512" d="" />
<glyph unicode="&#xe900;" glyph-name="psel-twitter" d="M1024 757.39c-37.689-16.299-78.137-27.307-120.661-32.199 43.349 25.316 76.686 65.422 92.388 113.18-38.447-22.603-83.157-39.837-130.695-49.191l-2.71-0.444c-38.691 39.862-92.774 64.599-152.634 64.599-0.27 0-0.539-0.001-0.808-0.002h0.042c-116.053 0-210.034-91.591-210.034-204.629 0-16.014 1.82-31.687 5.404-46.649-174.62 8.533-329.387 90.027-433.038 213.845-17.867-29.351-28.444-64.845-28.444-102.81 0-0.036 0-0.072 0-0.108v0.006c0-71.026 37.12-133.632 93.44-170.382-35.014 1.095-67.614 10.446-96.227 26.158l1.109-0.558-0.028-2.56c0-99.157 72.391-181.874 168.505-200.676-16.583-4.552-35.625-7.167-55.277-7.167-13.986 0-27.663 1.325-40.912 3.856l1.355-0.215c26.709-81.266 104.334-140.43 196.21-142.108-71.211-54.687-161.602-87.639-259.689-87.639-0.403 0-0.806 0.001-1.208 0.002h0.062c-0.135 0-0.294 0-0.453 0-17.511 0-34.78 1.033-51.75 3.043l2.055-0.198c91.127-57.657 202.054-91.877 320.974-91.877 0.377 0 0.755 0 1.132 0.001h-0.058c386.389 0 597.732 311.836 597.732 582.258 0 8.875-0.256 17.721-0.626 26.51 41.238 29.206 76.011 64.332 103.936 104.569l0.911 1.387z" />
<glyph unicode="&#xe901;" glyph-name="psel-facebook" d="M752.981 388.352l28.729 183.922h-179.797v119.353c0 50.318 25.116 99.356 105.671 99.356h81.749v156.587s-74.212 12.43-145.124 12.43c-148.11 0-244.907-88.092-244.907-247.552v-140.174h-164.636v-183.922h164.636v-444.615c30.449-4.934 65.547-7.754 101.305-7.754s70.856 2.819 105.086 8.248l-3.781-0.494v444.587h151.068z" />
<glyph unicode="&#xe902;" glyph-name="psel-user" d="M511.957 896c0.934 0.013 2.038 0.021 3.143 0.021 129.603 0 234.667-105.064 234.667-234.667s-105.064-234.667-234.667-234.667c-1.12 0-2.238 0.008-3.354 0.023l0.169-0.002c-128.226 1.796-231.481 106.162-231.481 234.645 0 128.498 103.28 232.873 231.357 234.644l0.167 0.002zM896 245.376c0 52.992-48.341 95.957-107.947 95.957h-552.107c-59.605 0-107.947-42.965-107.947-95.957v-39.253c0-24.363 8.533-48.213 24.491-68.053 74.069-92.331 195.157-138.069 359.339-138.069s285.355 45.739 359.552 138.027c15.172 18.403 24.435 42.172 24.618 68.098v39.208z" />
<glyph unicode="&#xe903;" glyph-name="psel-cart" d="M893.693 631.89h-74.166c-1.229 182.378-138.912 328.109-307.322 328.109-168.415 0-306.503-145.731-307.323-328.109h-74.167c-69.66 0-126.617-54.325-130.715-124.175v-7.332c0-43.115 20.488-81.486 52.040-105.201l92.196-375.107c12.702-51.306 65.562-84.074 124.158-84.074h463.031c58.188 0 111.047 32.768 123.749 84.074l88.1 358.723c45.482 18.542 77.852 62.087 80.724 114.258v7.327c0.409 72.867-58.188 131.505-130.305 131.505zM512.205 865.575c124.977 0 225.369-105.203 226.189-233.686h-452.789c1.23 128.484 101.213 233.686 226.599 233.686zM767.332 41.202c-2.458-9.486-20.078-20.263-43.843-20.263h-448.538c-20.898 1.724-36.059 11.641-38.108 20.263l-80.723 327.68h691.525l-80.315-327.68zM941.633 500.384c0-25.436-20.898-46.133-47.12-46.564h-764.617c-24.586 0.43-44.664 18.539-47.123 41.825v4.739c-0.409 25.44 20.898 46.567 47.942 46.567h762.978c24.994 0 45.072-18.108 47.94-41.39v-5.177zM610.545 283.943c26.636 0 48.353-20.263 50.81-46.564v-79.765c0-28.454-22.945-51.737-51.221-51.737-26.632 0-48.349 20.263-50.81 46.564v79.765c0 28.454 22.95 51.737 51.221 51.737zM413.861 283.943c26.636 0 48.353-20.263 50.81-46.564v-79.765c0-28.454-22.945-51.737-51.221-51.737-26.632 0-48.353 20.263-50.81 46.564v79.765c0 28.454 22.945 51.737 51.221 51.737z" />
<glyph unicode="&#xe904;" glyph-name="psel-goals-off" d="M512 790.975c-189.417 0-342.972-153.555-342.972-342.974 0-189.421 153.555-342.974 342.972-342.974 189.42 0 342.979 153.554 342.979 342.974s-153.559 342.974-342.979 342.974zM106.669 448.001c0 223.859 181.474 405.334 405.331 405.334 223.862 0 405.335-181.474 405.335-405.334 0-223.858-181.473-405.331-405.335-405.331-223.857 0-405.331 181.473-405.331 405.331zM540.6 510.36h-57.223c-9.118 0-17.171-5.942-19.861-14.654l-20.328-65.836c-2.569-8.325 0.322-17.367 7.243-22.651l48.954-37.396c7.45-5.693 17.785-5.693 25.235 0l48.942 37.386c6.922 5.289 9.815 14.331 7.245 22.656l-20.347 65.845c-2.693 8.71-10.747 14.649-19.86 14.649zM540.6 572.719c36.465 0 68.675-23.759 79.437-58.598l20.347-65.847c10.291-33.292-1.275-69.465-28.964-90.621l-48.942-37.386c-29.798-22.764-71.148-22.764-100.947 0l-48.954 37.396c-27.685 21.151-39.25 57.313-28.972 90.602l20.328 65.838c10.76 34.848 42.973 58.616 79.444 58.616h57.223zM378.737 764.303l-15.039 48.643 59.577 18.419 15.039-48.643c1.346-4.354 5.372-7.323 9.93-7.323h127.459c4.562 0 8.586 2.97 9.933 7.324l15.027 48.638 59.581-18.412-15.032-48.638c-9.421-30.483-37.601-51.272-69.509-51.272h-127.459c-31.903 0-60.083 20.784-69.507 51.263zM753.889 677.12l39.834 30.431 37.857-49.554-39.839-30.431c-3.461-2.644-4.905-7.166-3.62-11.327l40.719-131.78c1.341-4.355 5.371-7.325 9.928-7.325h47.386v-62.357h-47.386c-31.908 0-60.088 20.787-69.509 51.273l-40.719 131.78c-9.001 29.13 1.116 60.783 25.349 79.291zM230.242 707.549l39.829-30.43c24.225-18.509 34.341-50.159 25.341-79.287l-40.724-131.802c-9.415-30.471-37.575-51.253-69.465-51.274l-47.359-0.031-0.039 62.36 47.359 0.029c4.556 0.003 8.579 2.973 9.924 7.325l40.725 131.802c1.286 4.161-0.16 8.682-3.62 11.327l-39.829 30.43 37.859 49.551zM226.4 274.202c26.071 19.922 62.253 19.932 88.331 0.015l104.527-79.821c24.235-18.509 34.357-50.166 25.354-79.304l-15.59-50.447-59.579 18.406 15.59 50.452c1.286 4.163-0.16 8.684-3.622 11.331l-104.528 79.821c-3.725 2.847-8.894 2.847-12.619 0l-37.668-28.79-37.864 49.551 37.668 28.785zM709.212 274.207c26.081 19.922 62.275 19.917 88.346-0.020l37.688-28.81-37.873-49.541-37.688 28.81c-3.722 2.852-8.893 2.852-12.621 0.005l-104.484-79.816c-3.461-2.642-4.91-7.168-3.62-11.325l15.575-50.422-59.576-18.412-15.58 50.422c-9.001 29.128 1.116 60.785 25.344 79.293l104.489 79.816z" />
<glyph unicode="&#xe905;" glyph-name="psel-goals-on" d="M620.036 514.121c-10.765 34.837-42.978 58.597-79.441 58.597h-57.22c-36.471 0-68.687-23.768-79.446-58.618l-20.328-65.835c-10.278-33.289 1.287-69.453 28.972-90.603l48.952-37.397c29.803-22.763 71.151-22.763 100.949 0l48.943 37.389c27.686 21.154 39.249 57.327 28.962 90.62l-20.343 65.847zM106.667 448c0 223.86 181.474 405.333 405.333 405.333s405.333-181.474 405.333-405.333c0-223.859-181.474-405.333-405.333-405.333s-405.333 181.474-405.333 405.333zM262.265 683.084l7.81-5.967c24.225-18.509 34.341-50.159 25.341-79.287l-40.724-131.802c-9.414-30.468-37.574-51.255-69.465-51.273l-14.609-0.009c5.108-53.086 22.317-102.635 48.836-145.856l6.95 5.308c26.071 19.925 62.252 19.934 88.33 0.017l104.528-79.825c24.233-18.505 34.358-50.163 25.356-79.296l-1.007-3.247c22.101-4.476 44.971-6.822 68.39-6.822s46.289 2.347 68.386 6.818l-1.003 3.251c-9.003 29.133 1.114 60.787 25.344 79.292l104.486 79.817c26.082 19.925 62.276 19.917 88.35-0.017l6.967-5.325c26.53 43.234 43.75 92.804 48.853 145.911h-14.613c-31.906 0-60.092 20.791-69.508 51.277l-40.717 131.779c-9.003 29.13 1.114 60.783 25.344 79.291l7.829 5.981c-32.533 34.547-72.158 62.342-116.548 81.062-9.468-30.402-37.611-51.123-69.461-51.123h-127.462c-31.849 0-59.987 20.713-69.458 51.106-44.38-18.723-83.996-46.517-116.524-81.061z" />
<glyph unicode="&#xe906;" glyph-name="psel-outcome-down" d="M819.2 285.615l-674.385 674.385-144.815-144.815 674.385-674.385h-546.385v-204.8h896v896h-204.8v-546.385z" />
<glyph unicode="&#xe907;" glyph-name="psel-comments-off" d="M648.53 486.4c0-70.692-57.308-128-128-128s-127.998 57.308-127.998 128v153.6c0 70.692 57.307 128 127.998 128s128-57.308 128-128v-153.6zM520.53 832c-106.037 0-191.998-85.961-191.998-192v-153.6c0-106.040 85.961-192 191.998-192 106.040 0 192 85.96 192 192v153.6c0 106.039-85.96 192-192 192zM520.53 211.2c17.674 0 32-14.326 32-32v-115.2c0-17.674-14.326-32-32-32-17.672 0-31.998 14.326-31.998 32v115.2c0 17.674 14.327 32 31.998 32zM213.331 518.4c17.673 0 32-14.327 32-32 0-151.987 123.211-275.2 275.198-275.2 151.992 0 275.2 123.213 275.2 275.2 0 17.673 14.326 32 32 32s32-14.327 32-32c0-187.336-151.864-339.2-339.2-339.2-187.334 0-339.198 151.864-339.198 339.2 0 17.673 14.327 32 32 32z" />
<glyph unicode="&#xe908;" glyph-name="psel-info" d="M512 192.001c14.504 0 26.665 4.904 36.48 14.72s14.72 21.976 14.72 36.48v204.8c0 14.504-4.904 26.665-14.72 36.48s-21.976 14.72-36.48 14.72c-14.504 0-26.665-4.904-36.48-14.72s-14.72-21.976-14.72-36.48v-204.8c0-14.504 4.904-26.665 14.72-36.48s21.976-14.72 36.48-14.72zM512 601.6c14.504 0 26.665 4.907 36.48 14.72s14.72 21.973 14.72 36.48c0 14.507-4.904 26.666-14.72 36.48s-21.976 14.72-36.48 14.72c-14.504 0-26.665-4.907-36.48-14.72s-14.72-21.973-14.72-36.48c0-14.507 4.904-26.666 14.72-36.48s21.976-14.72 36.48-14.72zM512-64c-70.825 0-137.387 13.44-199.68 40.32s-116.48 63.36-162.56 109.44c-46.080 46.080-82.56 100.265-109.44 162.56s-40.32 128.855-40.32 199.68c0 70.825 13.44 137.387 40.32 199.68s63.36 116.48 109.44 162.56c46.080 46.080 100.266 82.56 162.56 109.44s128.855 40.32 199.68 40.32c70.825 0 137.384-13.44 199.68-40.32s116.48-63.36 162.56-109.44c46.080-46.080 82.56-100.266 109.44-162.56s40.32-128.855 40.32-199.68c0-70.825-13.44-137.384-40.32-199.68s-63.36-116.48-109.44-162.56c-46.080-46.080-100.265-82.56-162.56-109.44s-128.855-40.32-199.68-40.32zM512 38.401c114.344 0 211.2 39.68 290.559 119.040s119.040 176.215 119.040 290.559c0 114.347-39.68 211.2-119.040 290.559s-176.215 119.040-290.559 119.040c-114.347 0-211.2-39.68-290.559-119.040s-119.040-176.214-119.040-290.559c0-114.344 39.68-211.2 119.040-290.559s176.214-119.040 290.559-119.040z" />
<glyph unicode="&#xe909;" glyph-name="psel-error" d="M512 192c14.505 0 26.665 4.905 36.48 14.72s14.72 21.975 14.72 36.48c0 14.505-4.905 26.665-14.72 36.48s-21.975 14.72-36.48 14.72c-14.506 0-26.666-4.905-36.48-14.72s-14.72-21.975-14.72-36.48c0-14.505 4.906-26.665 14.72-36.48s21.974-14.72 36.48-14.72zM512 396.8c14.505 0 26.665 4.905 36.48 14.72s14.72 21.975 14.72 36.48v204.8c0 14.506-4.905 26.666-14.72 36.48s-21.975 14.72-36.48 14.72c-14.506 0-26.666-4.906-36.48-14.72s-14.72-21.974-14.72-36.48v-204.8c0-14.505 4.906-26.665 14.72-36.48s21.974-14.72 36.48-14.72zM512-64c-70.826 0-137.386 13.44-199.68 40.32s-116.48 63.36-162.56 109.44c-46.080 46.080-82.56 100.265-109.44 162.56s-40.32 128.855-40.32 199.68c0 70.826 13.44 137.386 40.32 199.68s63.36 116.48 109.44 162.56c46.080 46.080 100.266 82.56 162.56 109.44s128.854 40.32 199.68 40.32c70.825 0 137.385-13.44 199.68-40.32s116.48-63.36 162.56-109.44c46.080-46.080 82.56-100.266 109.44-162.56s40.32-128.854 40.32-199.68c0-70.825-13.44-137.385-40.32-199.68s-63.36-116.48-109.44-162.56c-46.080-46.080-100.265-82.56-162.56-109.44s-128.855-40.32-199.68-40.32zM512 38.4c114.345 0 211.2 39.68 290.56 119.040s119.040 176.215 119.040 290.56c0 114.346-39.68 211.2-119.040 290.56s-176.215 119.040-290.56 119.040c-114.346 0-211.2-39.68-290.56-119.040s-119.040-176.214-119.040-290.56c0-114.345 39.68-211.2 119.040-290.56s176.214-119.040 290.56-119.040z" />
<glyph unicode="&#xe90a;" glyph-name="psel-comments-on" d="M520.53 832c-106.037 0-191.998-85.961-191.998-192v-153.6c0-106.040 85.961-192 191.998-192 106.040 0 192 85.96 192 192v153.6c0 106.039-85.96 192-192 192zM520.53 211.2c17.674 0 32-14.326 32-32v-115.2c0-17.674-14.326-32-32-32-17.672 0-31.998 14.326-31.998 32v115.2c0 17.674 14.327 32 31.998 32zM213.331 518.4c17.673 0 32-14.327 32-32 0-151.987 123.211-275.2 275.198-275.2 151.992 0 275.2 123.213 275.2 275.2 0 17.673 14.326 32 32 32s32-14.327 32-32c0-187.336-151.864-339.2-339.2-339.2-187.334 0-339.198 151.864-339.198 339.2 0 17.673 14.327 32 32 32z" />
<glyph unicode="&#xe90b;" glyph-name="psel-cross" d="M153.003 806.997c15.441 15.437 36.771 24.984 60.331 24.984s44.889-9.548 60.331-24.985l238.336-238.336 238.336 238.336c15.33 14.821 36.239 23.954 59.282 23.954 47.128 0 85.333-38.205 85.333-85.333 0-23.043-9.133-43.952-23.977-59.306l0.023 0.024-238.336-238.336 238.336-238.336c14.821-15.33 23.954-36.239 23.954-59.282 0-47.128-38.205-85.333-85.333-85.333-23.043 0-43.952 9.133-59.306 23.977l0.024-0.023-238.336 238.336-238.336-238.336c-15.33-14.821-36.239-23.954-59.282-23.954-47.128 0-85.333 38.205-85.333 85.333 0 23.043 9.133 43.952 23.977 59.306l-0.023-0.024 238.336 238.336-238.336 238.336c-15.437 15.441-24.984 36.771-24.984 60.331s9.548 44.889 24.985 60.331v0z" />
<glyph unicode="&#xe90c;" glyph-name="psel-freebet" d="M382.879 234.667l32.681 151.561h267.854l21.146 96.798h-268.493l16.661 77.055h293.487l21.786 101.254h-420.366l-91.634-426.667h126.879z" />
<glyph unicode="&#xe90d;" glyph-name="psel-bin" d="M384 490.667c0 23.565 19.103 42.667 42.667 42.667s42.667-19.102 42.667-42.667v-256c0-23.565-19.102-42.667-42.667-42.667s-42.667 19.102-42.667 42.667v256zM554.667 490.667c0 23.565 19.102 42.667 42.667 42.667s42.667-19.102 42.667-42.667v-256c0-23.565-19.102-42.667-42.667-42.667s-42.667 19.102-42.667 42.667v256zM668.89 728c0 81.002-64.393 146.667-143.829 146.667h-26.15c-79.433 0-143.826-65.665-143.826-146.667v-13.333h-209.191c-21.664 0-39.226-17.908-39.226-40s17.562-40 39.226-40h55.581l40.878-479.373c6.463-75.793 68.683-133.961 143.287-133.961h252.757c74.603 0 136.823 58.167 143.287 133.961l40.879 479.373h55.543c21.666 0 39.228 17.908 39.228 40s-17.562 40-39.228 40h-209.216v13.333zM433.536 728c0 36.819 29.269 66.667 65.374 66.667h26.15c36.109 0 65.378-29.848 65.378-66.667v-13.333h-156.902v13.333zM280.221 634.667h463.591l-40.286-472.444c-2.94-34.449-31.219-60.89-65.131-60.89h-252.757c-33.911 0-62.193 26.441-65.131 60.89l-40.287 472.444z" />
<glyph unicode="&#xe90e;" glyph-name="psel-bets" d="M352 434.667c0 22.093 17.908 40 40 40h240c22.093 0 40-17.907 40-40s-17.907-40-40-40h-240c-22.092 0-40 17.907-40 40zM392 314.667c-22.092 0-40-17.907-40-40s17.908-40 40-40h240c22.093 0 40 17.907 40 40s-17.907 40-40 40h-240zM312 768h-26.667c-81.002 0-146.667-65.665-146.667-146.667v-453.333c0-81.003 65.665-146.667 146.667-146.667h453.333c81.003 0 146.667 65.664 146.667 146.667v453.333c0 81.001-65.664 146.667-146.667 146.667h-26.667v13.333c0 51.546-41.783 93.333-93.333 93.333h-213.333c-51.546 0-93.333-41.787-93.333-93.333v-13.333zM392 781.333c0 7.363 5.97 13.333 13.333 13.333h213.333c7.364 0 13.333-5.969 13.333-13.333v-80c0-7.364-5.969-13.333-13.333-13.333h-213.333c-7.363 0-13.333 5.97-13.333 13.333v80zM711.053 688h27.614c36.821 0 66.667-29.847 66.667-66.667v-453.333c0-36.821-29.845-66.667-66.667-66.667h-453.333c-36.819 0-66.667 29.845-66.667 66.667v453.333c0 36.819 29.847 66.667 66.667 66.667h27.612c6.47-45.231 45.369-80 92.388-80h213.333c47.019 0 85.918 34.77 92.386 80z" />
<glyph unicode="&#xe90f;" glyph-name="psel-arrow-left" d="M656.643-31.138l-415.852 415.857c-9.041 9.041-15.444 18.83-19.211 29.382s-5.651 21.851-5.651 33.901c0 12.050 1.884 23.351 5.651 33.901s10.171 20.341 19.211 29.382l415.852 415.857c16.58 16.576 37.671 24.86 63.284 24.86 25.621 0 46.712-8.286 63.284-24.86 16.58-16.574 24.86-37.666 24.86-63.284s-8.281-46.708-24.86-63.284l-352.574-352.574 352.574-352.574c16.58-16.571 24.86-37.671 24.86-63.284s-8.281-46.712-24.86-63.284c-16.571-16.571-37.662-24.86-63.284-24.86-25.61 0-46.704 8.291-63.284 24.86z" />
<glyph unicode="&#xe910;" glyph-name="psel-arrow-down" d="M24.992 723.604c33.325 33.559 87.356 33.559 120.68 0l366.327-368.909 366.327 368.909c33.329 33.559 87.358 33.559 120.685 0 33.318-33.559 33.318-87.971 0-121.531l-426.673-429.678c-33.318-33.557-87.347-33.557-120.676 0l-426.669 429.678c-33.325 33.559-33.325 87.971 0 121.531z" />
<glyph unicode="&#xe911;" glyph-name="psel-arrow-right" d="M255.92-4.513c-31.182 30.967-31.182 81.169 0 112.135l342.778 340.378-342.778 340.379c-31.182 30.964-31.182 81.167 0 112.131s81.739 30.964 112.921 0l399.239-396.445c31.182-30.964 31.182-81.167 0-112.131l-399.239-396.448c-31.183-30.959-81.739-30.959-112.921 0z" />
<glyph unicode="&#xe912;" glyph-name="psel-arrow-up" d="M999.009 171.878c-33.321-33.624-87.351-33.624-120.683 0l-366.323 369.603-366.329-369.603c-33.325-33.624-87.355-33.624-120.681 0s-33.323 88.139 0 121.763l426.669 430.481c33.321 33.624 87.351 33.624 120.683 0l426.664-430.481c33.321-33.624 33.321-88.139 0-121.763z" />
<glyph unicode="&#xe913;" glyph-name="psel-clock" d="M512 874.667c-234.667 0-426.667-192-426.667-426.667s192-426.667 426.667-426.667 426.667 192 426.667 426.667-192 426.667-426.667 426.667zM401.749 691.797l-4.096 27.307c-6.059 40.107 50.005 55.979 65.963 18.773l104.96-244.565 153.856 42.155 21.333 4.608c39.168 8.107 58.709-45.397 23.552-64.341l-201.557-108.629c-4.931-4.164-10.548-7.759-16.607-10.561l-0.46-0.191-3.328-1.365-2.304-0.768-1.707-0.341-3.84-1.109c-4.522-1.044-9.714-1.643-15.046-1.643-28.484 0-52.978 17.082-63.797 41.56l-0.176 0.446-2.389 6.315c-1.062 2.978-1.954 6.515-2.517 10.161l-0.043 0.335-51.712 281.856z" />
<glyph unicode="&#xe914;" glyph-name="psel-star" d="M512.1 232.692l-222.188-133.384 58.838 251.594-195.868 169.128 257.688 21.798 101.392 237.896 101.416-238.49 257.738-21.802-195.868-169.126 58.79-251.378-221.94 133.764zM939.504 578.48c-0.022-0.016 0.014 0.016 0 0v0zM512 118.886l248.312-149.664c45.472-27.428 101.12 13.116 89.154 64.394l-65.822 281.438 219.596 189.61c40.090 34.582 18.548 100.174-34.106 104.346l-289 24.448-113.088 265.932c-20.342 48.296-89.75 48.296-110.096 0l-113.086-265.336-289-24.448c-52.654-4.174-74.194-69.762-34.106-104.346l219.592-189.612-65.818-281.436c-11.968-51.28 43.68-91.824 89.154-64.402l248.312 149.072zM477.302 861.228c-0.010 0.022-0.020 0.046-0.028 0.066l0.028-0.066z" />
<glyph unicode="&#xe915;" glyph-name="psel-star-full" d="M512 118.886l248.312-149.664c45.472-27.428 101.12 13.116 89.154 64.394l-65.822 281.438 219.596 189.61c40.090 34.582 18.548 100.174-34.106 104.346l-289 24.448-113.086 265.932c-20.342 48.296-89.75 48.296-110.096 0l-113.086-265.336-289-24.448c-52.654-4.174-74.194-69.764-34.106-104.346l219.592-189.612-65.818-281.436c-11.968-51.28 43.68-91.824 89.154-64.394l248.312 149.066z" />
<glyph unicode="&#xe916;" glyph-name="psel-help" d="M509.866 192c14.934 0 27.555 5.156 37.866 15.468s15.468 22.932 15.468 37.868c0 14.935-5.156 27.556-15.468 37.868s-22.932 15.468-37.866 15.468c-14.933 0-27.555-5.156-37.866-15.468s-15.466-22.932-15.466-37.868c0-14.935 5.155-27.556 15.466-37.868s22.934-15.468 37.866-15.468zM511.999 21.335c-59.022 0-114.489 11.203-166.4 33.603s-97.066 52.797-135.466 91.197c-38.4 38.4-68.8 83.558-91.2 135.465-22.4 51.912-33.6 107.382-33.6 166.402 0 59.022 11.2 114.489 33.6 166.4s52.8 97.066 91.2 135.466c38.4 38.4 83.555 68.8 135.466 91.2s107.378 33.6 166.4 33.6c59.024 0 114.489-11.2 166.401-33.6s97.065-52.8 135.465-91.2c38.4-38.4 68.803-83.555 91.203-135.466s33.597-107.378 33.597-166.4c0-59.020-11.197-114.49-33.597-166.402-22.4-51.907-52.803-97.065-91.203-135.465s-83.553-68.797-135.465-91.197c-51.912-22.4-107.377-33.603-166.401-33.603zM516.265 631.469c17.777 0 33.244-5.689 46.403-17.066 13.153-11.378 19.732-25.6 19.732-42.666 0-15.645-4.803-29.511-14.403-41.6s-20.444-23.467-32.532-34.134c-16.353-14.222-30.754-29.866-43.199-46.934s-18.666-36.269-18.666-57.598c0-9.958 3.734-18.314 11.2-25.068 7.466-6.758 16.178-10.132 26.134-10.132 10.667 0 19.735 3.553 27.199 10.665s12.268 16 14.403 26.665c2.842 14.935 9.242 28.268 19.2 40.003 9.953 11.735 20.618 22.933 32 33.599 16.353 15.645 30.397 32.711 42.132 51.2 11.73 18.489 17.597 39.111 17.597 61.866 0 36.267-14.756 65.956-44.268 89.067-29.507 23.111-63.821 34.666-102.932 34.666-27.021 0-52.799-5.689-77.332-17.066s-43.2-28.8-56-52.267c-4.978-8.533-6.578-17.6-4.8-27.2s6.578-16.889 14.4-21.866c9.955-5.689 20.266-7.466 30.933-5.334s19.556 8.178 26.667 18.134c7.822 10.666 17.6 18.845 29.333 24.534s24 8.533 36.799 8.533z" />
<glyph unicode="&#xe917;" glyph-name="psel-rules" d="M341.334 234.665h213.331c12.088 0 22.226 4.091 30.403 12.268s12.268 18.309 12.268 30.397c0 12.088-4.091 22.226-12.268 30.403s-18.314 12.268-30.403 12.268h-213.331c-12.089 0-22.222-4.091-30.4-12.268s-12.267-18.314-12.267-30.403c0-12.088 4.089-22.221 12.267-30.397s18.311-12.268 30.4-12.268zM341.334 405.33h341.331c12.088 0 22.226 4.091 30.403 12.268s12.268 18.309 12.268 30.403c0 12.087-4.091 22.22-12.268 30.398s-18.314 12.266-30.403 12.266h-341.331c-12.089 0-22.222-4.089-30.4-12.266s-12.267-18.311-12.267-30.398c0-12.093 4.089-22.226 12.267-30.403s18.311-12.268 30.4-12.268zM341.334 575.998h341.331c12.088 0 22.226 4.089 30.403 12.266s12.268 18.311 12.268 30.4c0 12.089-4.091 22.222-12.268 30.4s-18.314 12.267-30.403 12.267h-341.331c-12.089 0-22.222-4.089-30.4-12.267s-12.267-18.311-12.267-30.4c0-12.089 4.089-22.222 12.267-30.4s18.311-12.266 30.4-12.266zM213.334 64c-23.467 0-43.556 8.356-60.267 25.062-16.711 16.712-25.066 36.803-25.066 60.268v597.335c0 23.467 8.355 43.556 25.066 60.267s36.8 25.066 60.267 25.066h179.2c9.244 25.6 24.711 46.222 46.4 61.866s46.044 23.467 73.066 23.467c27.023 0 51.379-7.822 73.068-23.467s37.156-36.266 46.397-61.866h179.2c23.47 0 43.556-8.356 60.268-25.066s25.068-36.8 25.068-60.267v-597.335c0-23.465-8.356-43.556-25.068-60.268-16.712-16.707-36.797-25.062-60.268-25.062h-597.331zM512 778.664c9.247 0 16.891 3.022 22.932 9.067 6.047 6.044 9.068 13.689 9.068 22.933s-3.021 16.889-9.068 22.934c-6.042 6.044-13.686 9.066-22.932 9.066s-16.889-3.022-22.934-9.066-9.066-13.689-9.066-22.934c0-9.244 3.022-16.889 9.066-22.933s13.689-9.067 22.934-9.067z" />
<glyph unicode="&#xe918;" glyph-name="psel-bet-off" d="M157.919 802.081c76.607 76.607 194.355 104.585 354.081 104.585 159.729 0 277.473-27.978 354.084-104.585 76.605-76.607 104.581-194.355 104.581-354.081 0-159.729-27.976-277.478-104.581-354.084-76.611-76.605-194.355-104.586-354.084-104.586-159.726 0-277.474 27.981-354.081 104.586s-104.585 194.355-104.585 354.084c0 159.726 27.978 277.474 104.585 354.081zM203.174 756.826c-57.979-57.979-85.839-153.565-85.839-308.826 0-155.264 27.86-250.849 85.839-308.828s153.564-85.842 308.826-85.842c155.264 0 250.849 27.863 308.828 85.842s85.837 153.564 85.837 308.828c0 155.261-27.858 250.847-85.837 308.826s-153.564 85.839-308.828 85.839c-155.262 0-250.847-27.86-308.826-85.839zM291.334 617c0 17.673 14.327 32 32 32h12.995c17.673 0 32-14.327 32-32s-14.327-32-32-32h-12.995c-17.673 0-32 14.327-32 32zM443.252 617c0 17.673 14.327 32 32 32h225.415c17.674 0 32-14.327 32-32s-14.326-32-32-32h-225.415c-17.673 0-32 14.327-32 32zM291.334 448.026c0 17.673 14.327 32 32 32h12.995c17.673 0 32-14.327 32-32 0-17.674-14.327-32-32-32h-12.995c-17.673 0-32 14.326-32 32zM443.252 448.026c0 17.673 14.327 32 32 32h225.415c17.674 0 32-14.327 32-32 0-17.674-14.326-32-32-32h-225.415c-17.673 0-32 14.326-32 32zM291.334 279.096c0 17.674 14.327 32 32 32h12.995c17.673 0 32-14.326 32-32s-14.327-32-32-32h-12.995c-17.673 0-32 14.326-32 32zM443.252 279.096c0 17.674 14.327 32 32 32h225.415c17.674 0 32-14.326 32-32s-14.326-32-32-32h-225.415c-17.673 0-32 14.326-32 32z" />
<glyph unicode="&#xe919;" glyph-name="psel-bet-on" d="M0 448c0 377.988 134.012 512 511.999 512 377.985 0 512.001-134.012 512.001-512s-134.016-512-512.001-512c-377.987 0-511.999 134.011-511.999 512zM467.917 612.403h270.49c21.197 0 38.4 17.203 38.4 38.4s-17.203 38.4-38.4 38.4h-270.49c-21.197 0-38.4-17.203-38.4-38.4s17.203-38.4 38.4-38.4zM467.917 409.651h270.49c21.197 0 38.4 17.203 38.4 38.4s-17.203 38.4-38.4 38.4h-270.49c-21.197 0-38.4-17.203-38.4-38.4s17.203-38.4 38.4-38.4zM467.917 206.899h270.49c21.197 0 38.4 17.203 38.4 38.4s-17.203 38.4-38.4 38.4h-270.49c-21.197 0-38.4-17.203-38.4-38.4s17.203-38.4 38.4-38.4zM285.594 612.403h15.616c21.197 0 38.4 17.203 38.4 38.4s-17.203 38.4-38.4 38.4h-15.616c-21.197 0-38.4-17.203-38.4-38.4s17.203-38.4 38.4-38.4zM285.594 409.651h15.616c21.197 0 38.4 17.203 38.4 38.4s-17.203 38.4-38.4 38.4h-15.616c-21.197 0-38.4-17.203-38.4-38.4s17.203-38.4 38.4-38.4zM285.594 206.899h15.616c21.197 0 38.4 17.203 38.4 38.4s-17.203 38.4-38.4 38.4h-15.616c-21.197 0-38.4-17.203-38.4-38.4s17.203-38.4 38.4-38.4z" />
<glyph unicode="&#xe91a;" glyph-name="psel-board-off" d="M831.575 509.068c22.866 0 41.364-18.86 41.364-42.090v-37.958c0-23.229-18.499-42.086-41.364-42.086h-127.16c-22.861 0-41.364 18.857-41.364 42.086v37.958c0 23.23 18.504 42.090 41.364 42.090h127.16zM938.665 466.978c0 60.228-47.959 109.022-107.090 109.022h-127.16c-59.126 0-107.085-48.795-107.085-109.022v-37.958c0-60.227 47.959-109.020 107.085-109.020h127.16c59.131 0 107.090 48.794 107.090 109.020v37.958zM319.575 722.399c22.864 0 41.367-18.86 41.367-42.089v-37.956c0-23.23-18.502-42.090-41.367-42.090h-127.16c-22.86 0-41.365 18.86-41.365 42.090v37.956c0 23.23 18.505 42.089 41.365 42.089h127.16zM426.662 680.309c0 60.227-47.958 109.022-107.087 109.022h-127.16c-59.125 0-107.085-48.795-107.085-109.022v-37.956c0-60.228 47.96-109.022 107.085-109.022h127.16c59.13 0 107.087 48.795 107.087 109.022v37.956zM319.575 295.731c22.864 0 41.367-18.857 41.367-42.086v-37.955c0-23.235-18.502-42.092-41.367-42.092h-127.16c-22.86 0-41.365 18.857-41.365 42.092v37.955c0 23.229 18.505 42.086 41.365 42.086h127.16zM426.662 253.645c0 60.227-47.958 109.020-107.087 109.020h-127.16c-59.125 0-107.085-48.794-107.085-109.020v-37.955c0-60.232 47.96-109.025 107.085-109.025h127.16c59.13 0 107.087 48.794 107.087 109.025v37.955zM597.949 417.244c-0.41 3.866-0.62 7.798-0.62 11.776v37.958c0 3.979 0.21 7.908 0.62 11.776h-12.672l-158.612 163.18c-0.094-25.137-8.541-48.263-22.661-66.656l123.719-127.278-123.719-127.278c14.119-18.391 22.566-41.518 22.66-66.657l158.612 163.18h12.672z" />
<glyph unicode="&#xe91b;" glyph-name="psel-board-on" d="M938.665 466.978c0 60.228-47.959 109.022-107.090 109.022h-127.16c-59.126 0-107.085-48.795-107.085-109.022v-37.958c0-60.227 47.959-109.020 107.085-109.020h127.16c59.131 0 107.090 48.794 107.090 109.020v37.958zM426.662 680.312c0 60.227-47.958 109.022-107.087 109.022h-127.16c-59.126 0-107.085-48.795-107.085-109.022v-37.956c0-60.228 47.96-109.022 107.085-109.022h127.16c59.13 0 107.087 48.795 107.087 109.022v37.956zM426.662 253.645c0 60.227-47.958 109.020-107.087 109.020h-127.16c-59.126 0-107.085-48.794-107.085-109.020v-37.955c0-60.232 47.96-109.025 107.085-109.025h127.16c59.13 0 107.087 48.794 107.087 109.025v37.955zM597.949 417.244c-0.41 3.866-0.62 7.798-0.62 11.776v37.958c0 3.979 0.21 7.908 0.62 11.776h-12.672l-158.612 163.18c-0.094-25.137-8.541-48.263-22.661-66.656l123.719-127.278-123.719-127.278c14.119-18.391 22.566-41.518 22.66-66.657l158.612 163.18h12.672z" />
<glyph unicode="&#xe91c;" glyph-name="psel-ranking-off" d="M149.331 426.665h128v-298.665h-128v298.665zM127.998 490.665c-23.564 0-42.666-19.102-42.666-42.665v-341.335c0-23.562 19.102-42.665 42.666-42.665h170.666c23.564 0 42.667 19.103 42.667 42.665v341.335c0 23.563-19.103 42.665-42.667 42.665h-170.666zM448 682.665h128v-554.665h-128v554.665zM426.666 746.665c-23.564 0-42.666-19.102-42.666-42.666v-597.334c0-23.562 19.103-42.665 42.666-42.665h170.669c23.562 0 42.665 19.103 42.665 42.665v597.334c0 23.564-19.103 42.666-42.665 42.666h-170.669zM746.67 298.665h128v-170.665h-128v170.665zM725.335 362.665c-23.562 0-42.665-19.103-42.665-42.665v-213.335c0-23.562 19.103-42.665 42.665-42.665h170.665c23.567 0 42.67 19.103 42.67 42.665v213.335c0 23.562-19.103 42.665-42.67 42.665h-170.665z" />
<glyph unicode="&#xe91d;" glyph-name="psel-ranking-on" d="M85.331 439.465c0 28.278 22.923 51.201 51.2 51.201h153.6c28.277 0 51.2-22.923 51.2-51.201v-324.265c0-28.278-22.923-51.2-51.2-51.2h-153.6c-28.277 0-51.2 22.922-51.2 51.2v324.265zM384 695.465c0 28.277 22.923 51.2 51.2 51.2h153.6c28.278 0 51.2-22.923 51.2-51.2v-580.265c0-28.278-22.922-51.2-51.2-51.2h-153.6c-28.277 0-51.2 22.922-51.2 51.2v580.265zM682.67 268.8c0 28.278 22.922 51.2 51.2 51.2h153.6c28.278 0 51.2-22.922 51.2-51.2v-153.6c0-28.278-22.922-51.2-51.2-51.2h-153.6c-28.278 0-51.2 22.922-51.2 51.2v153.6z" />
<glyph unicode="&#xe91e;" glyph-name="psel-statistics-off" d="M306.109 760.413c-74.503 0-134.866-60.363-134.866-134.865v-226.013c0-74.465 60.369-134.866 134.866-134.866h411.786c74.501 0 134.866 60.401 134.866 134.866v226.013c0 74.502-60.36 134.865-134.866 134.865h-411.786zM107.244 625.547c0 109.848 89.017 198.865 198.866 198.865h411.786c109.855 0 198.866-89.017 198.866-198.865v-226.013c0-109.798-89.006-198.866-198.866-198.866h-411.786c-109.854 0-198.866 89.068-198.866 198.866v226.013zM512 896.26c17.674 0 32-14.327 32-32v-72.316c0-17.673-14.326-32-32-32s-32 14.327-32 32v72.316c0 17.673 14.327 32 32 32zM710.513 618.562c12.498-12.498 12.493-32.76-0.005-45.255l-139.32-139.279c-12.498-12.493-32.753-12.493-45.251 0.005l-69.77 69.766-97.394-97.358c-12.499-12.493-32.76-12.493-45.255 0.010-12.495 12.498-12.491 32.758 0.008 45.253l120.020 119.977c12.497 12.493 32.755 12.491 45.25-0.004l69.77-69.767 116.695 116.658c12.498 12.495 32.758 12.492 45.251-0.007zM512.046 263.414c8.591 0 16.819-3.451 22.835-9.58l162.939-165.955c12.38-12.611 12.196-32.87-0.415-45.256-12.611-12.38-32.87-12.196-45.256 0.415l-140.104 142.705-140.146-142.705c-12.383-12.611-32.644-12.795-45.253-0.41-12.61 12.38-12.793 32.64-0.41 45.251l162.978 165.96c6.017 6.124 14.245 9.574 22.831 9.574z" />
<glyph unicode="&#xe91f;" glyph-name="psel-statistics-on" d="M512 855.509c16.067 0 29.091-13.025 29.091-29.091v-65.742c0-16.067-13.023-29.091-29.091-29.091s-29.091 13.024-29.091 29.091v65.742c0 16.066 13.023 29.091 29.091 29.091zM144.040 609.407c0 99.862 80.925 180.787 180.787 180.787h374.352c99.863 0 180.787-80.925 180.787-180.787v-205.467c0-99.817-80.915-180.787-180.787-180.787h-374.352c-99.867 0-180.787 80.97-180.787 180.787v205.467zM692.461 561.917c11.362 11.359 11.366 29.778 0.005 41.141-11.357 11.362-29.775 11.365-41.137 0.006l-106.086-106.053-63.427 63.424c-11.357 11.359-29.775 11.36-41.136 0.003l-109.11-109.069c-11.363-11.357-11.366-29.78-0.007-41.142s29.778-11.366 41.141-0.009l88.54 88.509 63.427-63.426c11.362-11.357 29.775-11.357 41.137 0l126.655 126.615zM512.037 280.199c7.81 0 15.29-3.137 20.759-8.709l148.126-150.872c11.255-11.464 11.087-29.882-0.377-41.137s-29.887-11.087-41.142 0.377l-127.372 129.727-127.402-129.731c-11.257-11.459-29.676-11.627-41.139-0.372-11.463 11.259-11.63 29.677-0.372 41.142l148.163 150.868c5.469 5.571 12.949 8.709 20.755 8.709z" />
<glyph unicode="&#xe920;" glyph-name="psel-teams-off" d="M373.294 367.99v-0.005c90.714-0.952 171.29-11.899 230.17-41.119 29.962-14.868 55.414-35.005 73.221-61.937 17.94-27.136 26.721-59.059 26.532-94.996l-0.005-0.717-0.036-0.717c-1.725-35.881-13.507-69.494-36.618-94.561-23.542-25.539-56.504-39.608-94.797-39.608h-397.64c-38.313 0-71.355 14.044-94.938 39.588-23.173 25.098-34.946 58.778-36.484 94.761l-0.031 0.712v0.717c0 36.004 8.885 67.953 26.854 95.099 17.844 26.957 43.281 47.13 73.247 62.008 58.876 29.24 139.325 40.054 229.907 40.771l0.617 0.005zM109.721 170.829c1.124-23.183 8.539-40.392 18.727-51.43 9.881-10.701 24.53-18.022 45.673-18.022h397.64c21.053 0 35.625 7.296 45.496 18.007 10.199 11.059 17.659 28.334 18.913 51.625 0.010 24.044-5.791 42.383-15.416 56.94-9.856 14.904-25.129 27.96-47.094 38.856-44.928 22.298-112.942 33.183-200.762 34.13-87.635-0.712-155.454-11.5-200.307-33.772-21.925-10.885-37.231-23.967-47.158-38.963-9.705-14.664-15.598-33.147-15.713-57.37zM728.008 319.744c1.485 18.458 17.644 32.22 36.101 30.735 59.069-4.736 112.389-16.835 151.711-42.291 41.702-26.998 65.802-67.978 65.516-122.266l-0.005-0.717-0.036-0.717c-1.449-30.254-11.412-59.034-31.365-80.681-20.383-22.113-48.855-34.166-81.541-34.166h-75.827c-18.519 0-33.526 15.007-33.526 33.526 0 18.514 15.007 33.521 33.526 33.521h75.827c15.447 0 25.528 5.279 32.241 12.564 7.050 7.649 12.677 20.101 13.66 37.75-0.031 30.367-12.027 50.089-34.908 64.901-25.436 16.471-65.536 27.32-120.637 31.744-18.452 1.48-32.215 17.644-30.735 36.096zM182.456 642.447c0 104.687 84.866 189.553 189.553 189.553 104.689 0 189.553-84.866 189.553-189.553s-84.863-189.552-189.553-189.552c-104.687 0-189.553 84.864-189.553 189.552zM372.009 764.95c-67.656 0-122.503-54.846-122.503-122.503s54.846-122.502 122.503-122.502c67.658 0 122.502 54.845 122.502 122.502s-54.844 122.503-122.502 122.503zM625.562 594.889c0 74.643 60.513 135.152 135.158 135.152 74.639 0 135.148-60.51 135.148-135.152s-60.508-135.153-135.148-135.153c-74.644 0-135.158 60.511-135.158 135.153zM760.719 662.99c-37.617 0-68.106-30.491-68.106-68.101 0-37.612 30.49-68.103 68.106-68.103 37.606 0 68.096 30.491 68.096 68.103s-30.49 68.101-68.096 68.101z" />
<glyph unicode="&#xe921;" glyph-name="psel-teams-on" d="M373.294 367.985c90.714-0.952 171.29-11.899 230.17-41.119 29.962-14.868 55.414-35.005 73.221-61.937 17.94-27.136 26.721-59.059 26.532-94.996l-0.005-0.717-0.036-0.717c-1.725-35.881-13.507-69.494-36.618-94.561-23.542-25.539-56.504-39.608-94.797-39.608h-397.64c-38.313 0-71.355 14.044-94.938 39.588-23.173 25.098-34.946 58.778-36.484 94.761l-0.031 0.712v0.717c0 36.004 8.885 67.953 26.854 95.099 17.844 26.957 43.281 47.13 73.247 62.008 58.876 29.24 139.325 40.054 229.907 40.771h0.617zM765.133 350.72c-14.413 0-28.826-4.762-33.628-19.036-4.808-9.518-4.808-28.549 0-38.067 48.046-71.373 43.238-137.994 24.023-176.061-4.808-9.518-4.808-23.793 4.803-33.306 4.803-9.518 19.22-14.28 28.826-14.28h76.877c67.261 0 115.308 47.585 115.308 118.963 0 147.512-163.354 161.787-216.207 161.787zM182.456 642.447c0 104.687 84.866 189.553 189.553 189.553 104.689 0 189.553-84.866 189.553-189.553s-84.863-189.552-189.553-189.552c-104.687 0-189.553 84.864-189.553 189.552zM625.562 594.889c0 74.643 60.513 135.152 135.158 135.152 74.639 0 135.148-60.51 135.148-135.152s-60.508-135.153-135.148-135.153c-74.644 0-135.158 60.511-135.158 135.153z" />
<glyph unicode="&#xe922;" glyph-name="psel-composition-off" d="M249.336 766.55c70.497 36.33 84.334 65.45 187.995 65.45h149.334c103.66 0 117.499-29.119 187.996-65.45 10.414-5.368 21.135-10.893 32.358-16.505 58.424-29.212 67.645-69.909 67.645-78.045v-202.666h-96v117.333c0 17.673-14.326 32-32 32s-32-14.327-32-32v-522.666h-405.334v522.666c0 17.673-14.327 32-32 32s-32-14.327-32-32v-117.333h-96v202.666c0 8.136 9.221 48.834 67.644 78.045 11.224 5.612 21.945 11.137 32.361 16.505zM778.665 405.335h128c17.674 0 32 14.326 32 32v234.665c0 34.53-24.914 96.233-103.025 135.288-10.46 5.232-20.731 10.545-30.961 15.839-71.383 36.937-98.166 72.873-218.015 72.873h-149.334c-119.849 0-146.632-35.936-218.016-72.873-10.23-5.294-20.499-10.607-30.962-15.839-78.11-39.055-103.022-100.758-103.022-135.288v-234.665c0-17.674 14.327-32 32-32h128v-373.335c0-17.674 14.327-32 32-32h469.334c17.674 0 32 14.326 32 32v373.335zM394.664 714.666c0 17.673 14.327 32 32 32h170.665c17.674 0 32-14.327 32-32s-14.326-32-32-32h-170.665c-17.673 0-32 14.327-32 32zM416 544c0 17.673 14.327 32 32 32h128c17.674 0 32-14.327 32-32v-341.335c0-17.669-14.326-32-32-32h-128c-17.673 0-32 14.331-32 32 0 17.674 14.327 32 32 32h96v106.67h-96c-17.673 0-32 14.326-32 32v170.665zM544 405.335v106.665h-64v-106.665h64z" />
<glyph unicode="&#xe923;" glyph-name="psel-composition-on" d="M906.667 405.333c17.673 0 32 14.327 32 32v234.667c0 34.531-24.913 96.233-103.023 135.288-10.462 5.231-20.732 10.545-30.963 15.838-15.607 8.076-29.082 16.105-41.865 23.72-45.679 27.214-82.505 49.154-176.149 49.154h-149.333c-93.645 0-130.471-21.94-176.151-49.154-12.782-7.615-26.257-15.643-41.865-23.72-10.23-5.293-20.499-10.607-30.962-15.838-78.11-39.055-103.023-100.758-103.023-135.288v-234.667c0-17.673 14.327-32 32-32h128v-373.333c0-17.673 14.327-32 32-32h469.333c17.673 0 32 14.327 32 32v373.333h128zM394.667 714.667c0 17.673 14.327 32 32 32h170.667c17.673 0 32-14.327 32-32s-14.327-32-32-32h-170.667c-17.673 0-32 14.327-32 32zM416 544c0 17.673 14.327 32 32 32h128c17.673 0 32-14.327 32-32v-341.333c0-17.673-14.327-32-32-32h-128c-17.673 0-32 14.327-32 32s14.327 32 32 32h96v106.667h-96c-17.673 0-32 14.327-32 32v170.667zM544 405.333v106.667h-64v-106.667h64z" />
<glyph unicode="&#xe924;" glyph-name="psel-lock" horiz-adv-x="1058" d="M668.535 590.336v62.362c0 33.553-14.199 65.741-39.492 89.498-24.833 22.936-58.155 37.003-94.763 37.003-0.261 0-0.522-0.001-0.782-0.002h-8.732c-74.547 0-135.031-56.593-135.031-126.498v-62.362c-33.997-2.526-67.925-5.939-101.82-10.206v72.329c0 58.88 24.917 115.302 69.291 156.979 44.373 41.643 104.55 65.126 167.356 65.263h8.772c62.805-0.137 122.982-23.552 167.356-65.195s69.359-97.997 69.427-156.843v-72.294c-24.34 3.332-59.288 6.886-94.481 9.568l-7.066 0.433zM214.221 490.94c94.646 17.603 203.545 27.67 314.795 27.67s220.148-10.067 325.834-29.341l-11.039 1.671 4.71-0.819c25.088-4.437 43.247-24.986 43.213-48.913v-339.797c0.034-23.893-18.091-44.442-43.213-48.913l-32.222-5.666c-86.328-16.144-185.686-25.418-287.195-25.498h-0.071c-96.358 0-192.512 8.431-287.198 25.19l-32.222 5.7v0.034c-25.054 4.437-43.213 24.951-43.213 48.913v339.763c0 23.927 18.159 44.476 43.213 48.913l4.642 1.092z" />
<glyph unicode="&#xe925;" glyph-name="psel-win" d="M954.965 656.128c16.275 16.379 26.335 38.951 26.335 63.872s-10.060 47.493-26.34 63.877l0.005-0.005c-16.462 16.545-39.249 26.783-64.427 26.783s-47.964-10.239-64.423-26.78l-476.249-479.236-151.979 152.917c-16.462 16.545-39.249 26.783-64.427 26.783s-47.964-10.239-64.423-26.78l-0.004-0.004c-16.301-16.383-26.377-38.972-26.377-63.915s10.077-47.532 26.381-63.918l216.316-217.596c16.453-16.565 39.242-26.819 64.427-26.819s47.974 10.254 64.422 26.814l0.005 0.005 540.757 544z" />
<glyph unicode="&#xe926;" glyph-name="psel-disqualified" horiz-adv-x="956" d="M79.599 448v0c0 219.938 178.295 398.234 398.234 398.234s398.234-178.295 398.234-398.234v0c0-219.938-178.295-398.234-398.234-398.234s-398.234 178.295-398.234 398.234zM477.798 726.733c-0.014 0-0.030 0-0.046 0-153.94 0-278.733-124.793-278.733-278.733 0-55.823 16.41-107.813 44.67-151.41l-0.66 1.087 385.092 385.092c-42.367 27.569-94.205 43.964-149.872 43.964-0.135 0-0.269 0-0.404 0h0.021zM712.636 598.323l-385.161-385.161c42.538-27.65 94.575-44.092 150.451-44.092 153.94 0 278.733 124.793 278.733 278.733 0 55.877-16.442 107.913-44.751 151.535l0.659-1.084z" />
<glyph unicode="&#xe927;" glyph-name="psel-outcome-up" d="M128 857.6v-102.4h546.944l-674.944-674.944 72.064-72.192 72.192-72.064 674.944 674.944v-546.944h204.8v896h-896v-102.4z" />
<glyph unicode="&#xe928;" glyph-name="psel-headtohead-off" d="M82.525 354.769c30.942 25.31 70.877 39.898 120.141 39.898s89.199-14.588 120.141-39.898c30.483-24.93 50.128-58.517 62.5-93.406 24.472-69.013 22.813-149.534 14.449-202.368-2.461-15.548-15.865-26.995-31.606-26.995h-330.968c-15.741 0-29.145 11.447-31.606 26.995-8.364 52.834-10.023 133.355 14.449 202.368 12.372 34.889 32.017 68.476 62.5 93.406zM65.539 96h274.253c3.747 43.921 1.335 98.458-14.805 143.97-9.692 27.332-23.735 49.749-42.7 65.259-18.506 15.138-43.779 25.438-79.622 25.438s-61.115-10.3-79.622-25.438c-18.965-15.509-33.007-37.926-42.7-65.259-16.14-45.513-18.553-100.049-14.805-143.97zM202.667 757.333c-64.801 0-117.333-52.532-117.333-117.333s52.532-117.333 117.333-117.333c64.801 0 117.333 52.532 117.333 117.333s-52.532 117.333-117.333 117.333zM21.333 640c0 100.148 81.186 181.333 181.333 181.333s181.333-81.186 181.333-181.333c0-100.148-81.186-181.333-181.333-181.333s-181.333 81.186-181.333 181.333zM701.193 354.769c30.942 25.31 70.878 39.898 120.141 39.898s89.199-14.588 120.141-39.898c30.481-24.93 50.129-58.517 62.498-93.406 24.474-69.013 22.814-149.534 14.451-202.368-2.462-15.548-15.868-26.995-31.607-26.995h-330.965c-15.744 0-29.146 11.447-31.607 26.995-8.363 52.834-10.022 133.355 14.447 202.368 12.373 34.889 32.017 68.476 62.502 93.406zM684.207 96h274.253c3.746 43.921 1.335 98.458-14.805 143.97-9.694 27.332-23.735 49.749-42.701 65.259-18.505 15.138-43.78 25.438-79.62 25.438-35.844 0-61.116-10.3-79.62-25.438-18.965-15.509-33.011-37.926-42.701-65.259-16.141-45.513-18.556-100.049-14.805-143.97zM821.333 757.333c-64.802 0-117.333-52.532-117.333-117.333s52.531-117.333 117.333-117.333c64.802 0 117.333 52.532 117.333 117.333s-52.531 117.333-117.333 117.333zM640 640c0 100.148 81.186 181.333 181.333 181.333s181.333-81.186 181.333-181.333c0-100.148-81.186-181.333-181.333-181.333s-181.333 81.186-181.333 181.333zM522.121 606.357c16.764-5.588 25.826-23.711 20.237-40.477l-28.625-85.88h40.934c10.287 0 19.947-4.945 25.958-13.291 6.016-8.346 7.654-19.072 4.399-28.83l-42.667-128c-5.589-16.764-23.71-25.826-40.478-20.237-16.764 5.589-25.826 23.71-20.237 40.478l28.625 85.879h-40.934c-10.287 0-19.947 4.945-25.958 13.286-6.016 8.346-7.65 19.072-4.399 28.834l42.667 127.998c5.589 16.766 23.71 25.827 40.478 20.239z" />
<glyph unicode="&#xe929;" glyph-name="psel-headtohead-on" d="M368.151 64h-330.968c-15.76 99.554-4.728 298.667 165.484 298.667s181.244-199.113 165.484-298.667zM82.525 354.769c30.942 25.31 70.877 39.898 120.141 39.898s89.199-14.588 120.141-39.898c30.483-24.93 50.128-58.517 62.5-93.406 24.472-69.013 22.813-149.534 14.449-202.368-2.461-15.548-15.865-26.995-31.606-26.995h-330.968c-15.741 0-29.145 11.447-31.606 26.995-8.364 52.834-10.023 133.355 14.449 202.368 12.372 34.889 32.017 68.476 62.5 93.406zM65.539 96h274.253c3.747 43.921 1.335 98.458-14.805 143.97-9.692 27.332-23.735 49.749-42.7 65.259-18.506 15.138-43.779 25.438-79.622 25.438s-61.115-10.3-79.622-25.438c-18.965-15.509-33.007-37.926-42.7-65.259-16.14-45.513-18.553-100.049-14.805-143.97zM352 640c0-82.475-66.859-149.333-149.333-149.333s-149.333 66.859-149.333 149.333c0 82.475 66.859 149.333 149.333 149.333s149.333-66.859 149.333-149.333zM202.667 757.333c-64.801 0-117.333-52.532-117.333-117.333s52.532-117.333 117.333-117.333c64.801 0 117.333 52.532 117.333 117.333s-52.532 117.333-117.333 117.333zM21.333 640c0 100.148 81.186 181.333 181.333 181.333s181.333-81.186 181.333-181.333c0-100.148-81.186-181.333-181.333-181.333s-181.333 81.186-181.333 181.333zM986.816 64h-330.965c-15.761 99.554-4.727 298.667 165.483 298.667s181.244-199.113 165.483-298.667zM701.193 354.769c30.942 25.31 70.878 39.898 120.141 39.898s89.199-14.588 120.141-39.898c30.481-24.93 50.129-58.517 62.498-93.406 24.474-69.013 22.814-149.534 14.451-202.368-2.462-15.548-15.868-26.995-31.607-26.995h-330.965c-15.744 0-29.146 11.447-31.607 26.995-8.363 52.834-10.022 133.355 14.447 202.368 12.373 34.889 32.017 68.476 62.502 93.406zM684.207 96h274.253c3.746 43.921 1.335 98.458-14.805 143.97-9.694 27.332-23.735 49.749-42.701 65.259-18.505 15.138-43.78 25.438-79.62 25.438-35.844 0-61.116-10.3-79.62-25.438-18.965-15.509-33.011-37.926-42.701-65.259-16.141-45.513-18.556-100.049-14.805-143.97zM970.667 640c0-82.475-66.859-149.333-149.333-149.333s-149.333 66.859-149.333 149.333c0 82.475 66.859 149.333 149.333 149.333s149.333-66.859 149.333-149.333zM821.333 757.333c-64.802 0-117.333-52.532-117.333-117.333s52.531-117.333 117.333-117.333c64.802 0 117.333 52.532 117.333 117.333s-52.531 117.333-117.333 117.333zM640 640c0 100.148 81.186 181.333 181.333 181.333s181.333-81.186 181.333-181.333c0-100.148-81.186-181.333-181.333-181.333s-181.333 81.186-181.333 181.333zM522.121 606.359c16.764-5.588 25.826-23.711 20.237-40.477l-28.625-85.882h40.934c10.287 0 19.947-4.945 25.958-13.286 6.016-8.346 7.654-19.072 4.399-28.83l-42.667-128c-5.589-16.768-23.71-25.83-40.478-20.241-16.764 5.589-25.826 23.714-20.237 40.478l28.625 85.879h-40.934c-10.287 0-19.947 4.945-25.958 13.291-6.016 8.346-7.65 19.072-4.399 28.83l42.667 128c5.589 16.766 23.71 25.827 40.478 20.239z" />
<glyph unicode="&#xe92a;" glyph-name="psel-boosted-bet" d="M465.252 325.903l97.917-156.79v-3.564l-181.331-111.135h-4.838l24.178 95.022-200.398-128.108-3.901 1.684 97.92 359.9 3.626 1.582 166.827-58.593zM144.894 513.478l367.5-123.979 203.095-330.849h7.255l147.482 812.453-6.042 3.563-719.29-352.776v-8.411z" />
<glyph unicode="&#xe92b;" glyph-name="psel-cashout" d="M482.418 832h169.985l-102.671-190.619c0 0 259.055-150.561 257.699-156.087h-722.099c-1.36 5.526 397.086 346.706 397.086 346.706zM541.57 64h-170.666l103.351 190.618c0 0-259.058 150.563-257.698 156.088h722.099c1.357-5.525-397.086-346.705-397.086-346.705z" />
<glyph unicode="&#xe92c;" glyph-name="psel-update" d="M470.187 895.733c-62.302-7.415-105.052-19.548-155.307-44.078-30.019-14.653-49.078-26.356-75.617-46.435-131.46-99.46-198.499-268.413-170.861-430.607 21.115-123.913 90.129-230.6 194.495-300.662 132.499-88.948 304.943-100.215 447.787-29.257 24.326 12.084 30.446 15.653 53.903 31.436 105.734 71.143 177.049 186.965 193.665 314.529 4.048 31.076 3.812 51.335-0.723 61.875-10.69 24.851-39.602 35.681-63.734 23.875-11.463-5.609-20.607-15.662-24.118-26.516-1.399-4.326-3.364-17.082-4.367-28.346-7.617-85.586-39.694-157.974-96.21-217.112-56.159-58.765-122.52-93.39-205.9-107.431-27.515-4.633-79.375-4.209-108.054 0.885-141.275 25.090-251.823 126.454-286.318 262.53-13.71 54.085-14.245 115.033-1.486 169.501 20.939 89.393 78.925 170.11 157.063 218.632 93.586 58.115 205.968 69.653 310.475 31.876 14.779-5.342 47.43-20.687 54.388-25.561 3.784-2.65 3.712-2.722-4.788-4.761-14.93-3.582-26.99-13.962-33.737-29.039-3.932-8.787-3.609-26.437 0.658-35.96 3.688-8.229 13.743-19.137 21.213-23.010 2.449-1.271 42.385-13.229 88.746-26.575 93.076-26.793 97.632-27.614 112.899-20.335 11.381 5.425 22.798 18.641 26.193 30.318 2.614 8.99 2.433 12.745-4.32 89.832-3.877 44.247-7.847 83.906-8.823 88.13-3.838 16.611-15.296 29.447-31.049 34.781-17.731 6.004-34.736 1.899-48.293-11.658-10.683-10.683-15.006-22.453-14.087-38.35l0.573-9.928-9.5 7.316c-61.657 47.483-139.829 78.875-220.9 88.711-18.425 2.235-79.211 3.138-93.866 1.394zM413.533 663.115c-10.988-6.7-14.728-17.044-12.219-33.795 1.964-13.111 33.042-185.238 40.904-226.547 5.865-30.814 9.823-40.027 21.687-50.469 11.189-9.849 23.806-14.029 39.676-13.145 9.927 0.554 14.663 1.742 20.48 5.14 4.161 2.431 40.974 22.643 81.806 44.917 100.708 54.935 97.306 52.85 102.131 62.576 3.073 6.194 3.74 9.585 2.885 14.65-2.502 14.809-12.941 24.207-26.9 24.218-8.606 0.007-34.307-6.348-102.863-25.433-23.467-6.533-43.169-11.353-43.783-10.712s-19.699 44.941-42.411 98.445c-22.711 53.504-42.7 99.584-44.419 102.4s-5.408 6.464-8.199 8.107c-7.025 4.134-21.712 3.955-28.775-0.352z" />
<glyph unicode="&#xe92d;" glyph-name="psel-thumb-up" d="M551.869 834.769l-232.755-231.693c-15.545-15.475-24.368-36.803-24.368-58.969v-417.803c0-46.003 37.812-83.642 84.027-83.642h378.124c33.613 0 63.859 20.077 77.306 50.605l136.96 318.264c35.296 82.808-25.626 174.816-115.955 174.816h-237.377l39.911 191.544c4.205 20.911-2.099 42.241-17.222 57.296-24.789 24.257-64.282 24.257-88.65-0.418zM126.691 42.662c46.215 0 84.028 37.638 84.028 83.642v334.577c0 46.004-37.812 83.644-84.028 83.644s-84.027-37.64-84.027-83.644v-334.577c0-46.003 37.812-83.642 84.027-83.642z" />
<glyph unicode="&#xe92e;" glyph-name="psel-calendar" d="M298.666 874.669c-22.091 0-40-17.908-40-40v-66.666h-26.667c-81.002 0-146.668-65.665-146.668-146.666v-453.333c0-81.004 65.666-146.668 146.668-146.668h560.004c81.004 0 146.668 65.664 146.668 146.668v453.333c0 81.001-65.664 146.666-146.668 146.666h-26.665v66.666c0 22.092-17.91 40-40.003 40s-39.997-17.908-39.997-40v-66.666h-346.671v66.666c0 22.092-17.909 40-40.001 40zM245.332 514.669c0 22.092 17.909 40 40.001 40h453.335c22.093 0 40.003-17.908 40.003-40s-17.91-40-40.003-40h-453.335c-22.092 0-40.001 17.909-40.001 40z" />
<glyph unicode="&#xe92f;" glyph-name="psel-tv" d="M512 855.512c16.067 0 29.091-13.025 29.091-29.091v-65.742c0-16.067-13.023-29.091-29.091-29.091s-29.091 13.024-29.091 29.091v65.742c0 16.066 13.023 29.091 29.091 29.091zM144.040 609.407c0 99.862 80.925 180.787 180.787 180.787h374.352c99.863 0 180.787-80.925 180.787-180.787v-205.467c0-99.817-80.915-180.787-180.787-180.787h-374.352c-99.867 0-180.787 80.97-180.787 180.787v205.467zM418.904 599.69v-163.745c0-35.924 38.968-58.303 69.996-40.201l140.353 81.869c30.79 17.962 30.79 62.45 0 80.411l-140.353 81.872c-31.028 18.101-69.996-4.282-69.996-40.205zM512.037 280.199c7.81 0 15.29-3.137 20.759-8.709l148.126-150.872c11.255-11.464 11.087-29.882-0.377-41.137s-29.887-11.087-41.142 0.377l-127.372 129.727-127.402-129.731c-11.257-11.459-29.676-11.627-41.139-0.372-11.463 11.259-11.63 29.677-0.372 41.142l148.163 150.868c5.469 5.571 12.949 8.709 20.755 8.709z" />
<glyph unicode="&#xe930;" glyph-name="psel-rocket" d="M375.652 153.201c-14.976 9.344-34.688 4.736-44.075-10.281-14.037-22.569-20.864-48.553-19.754-75.095 0.768-17.234 14.934-30.674 31.958-30.674 0.469 0 0.938 0 1.408 0.041 17.664 0.727 31.36 15.657 30.592 33.321-0.555 13.655 2.944 27.008 10.154 38.615 9.302 15.017 4.736 34.729-10.282 44.073zM217.423 311.506c-9.344 15.022-29.098 19.584-44.074 10.286-11.478-7.127-24.576-10.542-38.187-9.774-17.408 0.384-32.725-12.498-33.749-30.162-0.982-17.623 12.544-32.727 30.165-33.751 2.475-0.128 4.95-0.215 7.382-0.215 24.106 0 47.53 6.743 68.182 19.543 15.018 9.344 19.626 29.056 10.282 44.073zM172.504 554.924c27.378-15.81 54.059-33.014 80.357-51.612 4.369-3.089 10.5-1.502 12.952 3.255 1.711 3.319 3.481 6.639 5.251 9.958 3.414 6.4 6.827 12.8 10.24 19.198 18.774 34.56 39.68 67.84 62.294 100.266v0.426c5.12 7.68 10.666 14.934 16.214 22.187 1.484 2.055 2.968 4.11 4.469 6.157 4.527 6.175-0.274 15.448-7.909 14.869l-97.253-7.373c-5.12-0.426-9.814-2.56-13.226-5.973l-77.654-77.654c-4.694-4.694-7.254-11.094-6.4-17.92 0.854-6.4 4.694-12.374 10.666-15.786zM699.868 279.306c-32.425-22.615-66.13-43.52-100.265-62.295-6.4-3.41-12.375-6.4-18.775-9.81-3.328-1.777-6.656-3.553-9.984-5.268-4.746-2.447-6.339-8.561-3.272-12.933 18.263-26.020 35.482-53.018 51.656-80.358 3.415-5.55 8.96-9.39 15.79-10.24 0.85-0.43 1.705-0.43 2.56-0.43 5.545 0 11.090 2.56 14.93 6.4l77.23 77.23c3.84 3.41 5.97 8.53 6.4 13.225l7.45 98.232c0.563 7.496-8.192 12.073-14.269 7.654-2.268-1.654-4.552-3.246-6.835-4.767-7.255-5.975-14.935-11.095-22.615-16.64zM245.341 226.033l-44.842-44.416c-12.544-12.462-12.63-32.686-0.214-45.271 6.272-6.313 14.507-9.472 22.742-9.472 8.15 0 16.298 3.113 22.528 9.303l44.842 44.416c12.544 12.416 12.63 32.681 0.214 45.225-12.458 12.544-32.768 12.672-45.27 0.215zM618.061 762.605c-4.076 4.074-3.026 10.934 2.15 13.47 14.479 7.097 29.793 13.641 45.793 19.163 4.531 1.565 9.539 0.336 12.928-3.055l176.548-176.544c3.466-3.466 4.664-8.612 2.975-13.214-5.74-15.661-12.298-30.839-19.364-45.226-2.54-5.173-9.4-6.225-13.471-2.15l-207.56 207.557zM628.188 478.986c-12.375-27.306-39.68-46.505-71.68-46.505-43.52 0-78.935 35.412-78.935 78.932 0 32 19.2 59.306 46.935 71.253 9.81 4.694 20.48 7.254 32 7.254 43.52 0 78.505-35.414 78.505-78.506 0-11.52-2.56-22.614-6.825-32.427zM899.973 825.013c-2.135 5.12-6.4 9.386-11.52 11.52-90.025 36.266-176.64 23.894-249.175-4.694 0 0-38.272-15.501-78.93-40.106-66.988-40.534-110.935-86.186-114.775-90.454-4.266-5.12-8.534-10.24-13.226-15.36v-0.426c-6.402-7.254-12.375-14.934-18.775-22.614-5.547-7.254-11.52-14.934-17.067-22.614-30.293-40.96-57.6-84.053-81.066-129.28-3.414-6.4-6.826-12.8-9.814-19.2-3.413-6.826-6.826-12.8-9.813-19.626v-0.426c-1.28-2.56-2.134-4.694-3.414-7.254-1.28-2.986-2.986-6.4-4.266-9.386-1.707-3.84-3.414-8.107-5.12-11.947-8.96-21.76-17.067-44.375-23.894-66.985-2.56-7.255-0.426-15.36 5.12-20.91l154.454-154.45c4.266-4.27 9.388-6.4 14.935-6.4 1.706 0 3.413 0 5.12 0.425 23.893 5.545 46.506 13.655 68.266 23.465 7.255 2.99 14.504 6.83 21.335 10.24 1.28 0.855 2.56 1.28 3.84 1.71 1.28 0.85 2.56 1.28 3.84 1.705v0.425c3.41 1.28 7.25 2.99 10.665 5.12 2.985 1.28 5.975 2.56 8.96 3.84 6.4 3.415 12.375 6.83 18.775 10.24 45.225 23.47 88.745 50.775 129.705 81.495 7.68 5.545 15.36 11.095 22.615 17.065 7.68 5.975 15.36 12.375 23.040 18.775 5.545 4.265 10.665 8.96 16.21 13.655 3.84 3.84 50.35 49.065 91.31 118.185 2.985 4.694 5.97 9.387 8.53 14.080 2.99 5.547 5.975 11.094 9.39 17.067 0 0.426 0.425 0.853 0.425 1.28 7.255 13.226 14.080 27.306 20.48 41.813l-1.28 1.28c29.44 72.96 41.815 160 5.12 248.747z" />
<glyph unicode="&#xe931;" glyph-name="psel-stadium" d="M28.444 447.918c0 118.848 212.929 215.193 475.591 215.193s475.591-96.345 475.591-215.193c0-4.107-0.256-8.132-0.757-12.074l0.757 0.1-2.725-20.872c-5.291-40.596-12.823-80.822-22.539-120.508-124.16-27.244-274.313-43.184-436.052-43.184-177.944 0-341.858 19.291-472.57 51.712-7.216 36.449-12.527 73.29-15.898 110.37l-1.398 15.383 1.974-0.239c-1.306 6.221-1.974 12.657-1.974 19.311zM152.517 484.414c0-50.157 189.162-79.936 349.582-82.527 34.426 0.238 68.848 0.953 103.256 2.147 139.503 8.005 270.888 36.336 270.888 80.38 0 52.533-200.482 107.711-365.138 107.711-164.654 0-358.587-55.178-358.587-107.711zM57.812 236.931c15.87-58.499 37.97-115.302 66.028-169.415l1.328-2.56c8.648-16.68 23.050-29.662 40.536-36.534 90.048-35.391 184.578-55.586 279.761-60.638-2.219 6.383-3.424 13.238-3.424 20.372v82.711c0 34.264 27.774 62.037 62.034 62.037s62.033-27.773 62.033-62.037v-82.711c0-6.599-1.030-12.954-2.938-18.921 88.202 6.872 175.6 26.749 259.141 59.585 16.828 6.616 30.913 18.904 39.691 34.714l1.564 2.816c29.872 53.766 53.862 110.393 71.68 168.897-122.357-25.139-272.469-39.942-434.683-39.942-165.799 0-318.954 15.462-442.752 41.626zM737.212 841.629l-13.244-49.397c18.898 0.366 32.916-1.054 43.071-3.712l13.585 47.886c-12.043 4.078-27.426 5.27-43.412 5.224zM851.951 778.44c5.74-1.879 11.913-4.857 18.17-8.615l14.057 50.451c-7.327 4.215-14.444 7.561-20.827 9.852-11.401 4.078-20.491 7.744-27.648 11.501l-13.113-50.864c7.202-4.124 16.498-8.111 29.36-12.326zM790.761 759.306c-1.718-10.218 6.081-15.213 18.642-19.796l13.244 51.276c-8.573 4.949-14.143 10.127-19.075 16.313l-12.299-42.615c0-1.695-0.216-3.391-0.512-5.178zM856.917 722.213c14.746-7.194 29.486-17.596 41.233-34.047l12.254 49.352c-12.169 12.281-26.567 24.151-40.283 32.308l-13.204-47.613zM849.966 896.667c-10.462 4.216-16.674 9.211-15.132 18.467l-16.93-58.562c3.305-5.636 9.091-10.31 17.874-14.938l14.188 55.033zM811.315 944.318c-10.587 2.795-25.333 4.216-45.562 3.712l-14.484-54.117c16.373 0.321 32.142-0.596 44.402-4.766l15.644 55.171zM900.335 878.382l-16.117-58.058c12.988-7.469 26.874-17.642 39.43-29.739l14.615 58.608c-11.184 13.701-24.553 22.728-37.928 29.189zM870.212 769.842l-13.295-47.629c-12.078 5.902-24.127 9.735-34.623 13.045-4.665 1.47-9.006 2.843-12.891 4.252l13.244 51.276c7.196-4.17 16.441-8.131 29.303-12.347 5.763-1.872 11.913-4.817 18.187-8.554l-0.017-0.061 0.091 0.016zM835.703 841.63l-13.056-50.843c-8.573 4.949-14.143 10.127-19.075 16.313l-12.299-42.615c0.040 10.356-5.877 19.288-24.178 24.054l13.585 47.886c13.204-4.491 22.329-12.51 23.7-26.349l13.46 46.511c3.3-5.637 9.079-10.327 17.863-14.956zM835.703 841.63c7.157-3.758 16.247-7.423 27.648-11.501 6.428-2.291 13.494-5.635 20.867-9.805l16.117 58.058c-11.719 5.653-23.455 9.367-33.667 12.595-6.263 1.979-11.964 3.781-16.771 5.75l-14.194-55.097zM723.968 792.232c-9.688-0.183-20.69-0.807-33.121-1.952l10.291 49.947c11.571 0.687 23.945 1.402 36.073 1.402l-13.244-49.397zM751.269 893.912l-14.057-52.283c15.986 0.046 31.425-1.128 43.469-5.205l14.916 52.742c-12.203 4.212-27.972 5.064-44.328 4.746l14.484 54.117c-12.043-0.321-26.044-1.264-42.246-3.051l-11.702-53.063c2.651 0.157 5.365 0.327 8.118 0.498 10.109 0.633 20.833 1.282 31.346 1.498zM818.825 861.153c-0.046 0.42-0.091 0.865-0.171 1.344-1.758 13.61-10.172 22.204-22.983 26.65l15.644 55.171c21.083-5.59 25.509-16.66 23.41-29.17l-15.815-54.759c-0.034 0.247-0.057 0.501-0.085 0.765zM910.404 737.518l13.244 53.067c-12.555 12.097-26.442 22.27-39.43 29.739l-14.080-50.438 0.074-0.044c13.693-8.155 28.046-20.065 40.192-32.324zM651.833 676.887c4.181-1.196 8.494 0.622 9.751 4.080l60.427 257.122c2.822 8.198-2.953 17.276-12.732 20.144-9.916 2.922-20.127-1.694-22.471-10.166l-40.732-262.738c-0.984-3.564 1.513-7.305 5.695-8.501l0.063 0.060zM831.511 932.612l-17.783-56.913c2.571-3.803 3.3-8.432 3.857-13.93 0.040-0.733 0.171-4.353 0.296-4.994l16.845 58.373c1.075 6.369 0.432 12.378-3.214 17.464zM817.84 856.586l-13.46-46.511c-0.643 6.278-2.867 11.324-6.343 15.448l-14.057-44.953c5.274-4.536 7.287-10.081 7.242-16.13l12.305 42.615c4.927-6.186 10.496-11.364 19.069-16.358l13.119 50.864c-8.789 4.628-14.575 9.302-17.874 14.938v0.086zM877.158 887.567c-10.377 3.483-19.843 6.095-27.261 9.073l-14.182-55.079c6.383-3.346 14.438-6.691 24.257-10.264l17.186 56.271zM844.538 780.983c-9.125 3.3-16.196 6.415-21.942 9.715l-13.193-51.187c5.911-2.153 12.891-4.259 20.395-6.688l14.74 48.16zM768.427 893.708c-5.575 0.275-11.332 0.296-17.158 0.204l-14.057-52.283c5.615 0 11.156-0.068 16.469-0.435l14.7 52.559 0.046-0.046zM723.507 944.979l-7.754-33.858-3.948-19.205c12.39 0.687 26.089 1.768 39.464 1.997l14.484 54.117c-12.043-0.321-26.044-1.264-42.246-3.051zM701.138 840.227l-10.291-49.947c12.43 1.146 23.433 1.769 33.121 1.952l13.244 49.397c-12.129 0-24.502-0.715-36.073-1.402zM898.15 688.166c-6.047 9.394-14.484 16.745-23.273 22.931-8.869 6.187-18.426 10.998-28.2 14.893-9.768 3.895-19.797 6.736-29.872 9.76-5.012 1.558-10.069 3.161-15.041 5.453-2.486 1.146-4.927 2.52-7.202 4.399-2.23 1.787-4.54 4.353-5.228 7.698-0.728 3.299 0 6.186 0.302 8.752 0.387 2.566 0.472 4.994-0.131 7.331-1.24 4.628-4.887 8.982-8.784 11.823-8.357 5.636-18.859 7.011-28.718 7.881-20.144 1.329-40.243-0.779-60.473-2.245h-0.085l-4.716-0.275 1.115 4.766 35.743 153.645-32.023-151.088c20.184 0.871 39.526 2.3 60.314 0.33 10.286-1.329 21.129-2.796 30.857-9.577 4.671-3.666 8.658-8.432 10.24-14.664 1.587-6.323-1.411-11.914-0.512-16.221 0.899-4.353 5.871-7.652 10.331-9.898 4.625-2.337 9.597-4.033 14.529-5.728 9.938-3.299 20.014-6.415 29.827-10.631s19.331-9.348 28.16-15.809c8.744-6.461 17.101-14.022 22.926-23.599l-0.085 0.072zM701.19 840.18c11.571 0.688 23.956 1.421 36.085 1.421l13.995 52.312c-13.375-0.275-27.034-1.264-39.464-1.997l-10.615-51.735zM795.671 889.147l-14.99-52.723c13.244-4.491 21.521-15.485 22.892-29.324l14.268 49.486c-0.427 2.199 4.659 23.809-22.17 32.561zM270.812 841.629l13.243-49.397c-18.901 0.366-32.915-1.054-43.073-3.712l-13.586 47.886c12.043 4.078 27.43 5.27 43.416 5.224zM156.074 778.44c-5.744-1.879-11.915-4.857-18.172-8.615l-14.058 50.451c7.329 4.215 14.444 7.561 20.829 9.852 11.401 4.078 20.486 7.744 27.644 11.501l13.115-50.864c-7.2-4.124-16.501-8.111-29.358-12.326zM217.263 759.306c1.714-10.218-6.086-15.213-18.644-19.796l-13.243 51.276c8.571 4.949 14.143 10.127 19.072 16.313l12.301-42.615c0-1.695 0.214-3.391 0.514-5.178zM151.103 722.213c-14.743-7.194-29.487-17.596-41.23-34.047l-12.257 49.352c12.171 12.281 26.571 24.151 40.286 32.308l13.202-47.613zM158.058 896.667c10.458 4.216 16.672 9.211 15.13 18.467l16.929-58.562c-3.3-5.636-9.086-10.31-17.872-14.938l-14.186 55.033zM196.709 944.318c10.586 2.795 25.33 4.216 45.559 3.712l14.486-54.117c-16.372 0.321-32.144-0.596-44.401-4.766l-15.644 55.171zM107.687 878.382l16.115-58.058c-12.986-7.469-26.872-17.642-39.43-29.739l-14.615 58.608c11.186 13.701 24.558 22.728 37.93 29.189zM137.809 769.842l13.294-47.629c12.079 5.902 24.128 9.735 34.625 13.045 4.662 1.47 9.003 2.843 12.891 4.252l-13.188 51.256c-7.2-4.124-16.501-8.111-29.358-12.326-5.763-1.872-11.917-4.817-18.191-8.554l0.019-0.061-0.093 0.016zM172.317 841.63l13.115-50.864c8.571 4.949 14.088 10.147 19.017 16.333l12.301-42.615c-0.043 10.356 5.877 19.288 24.178 24.054l-13.586 47.886c-13.2-4.491-22.329-12.51-23.701-26.349l-13.458 46.511c-3.3-5.637-9.079-10.327-17.865-14.956zM172.317 841.63c-7.158-3.758-16.243-7.423-27.644-11.501-6.429-2.291-13.5-5.635-20.871-9.805l-16.115 58.058c11.718 5.653 23.454 9.367 33.667 12.595 6.262 1.979 11.964 3.781 16.77 5.75l14.193-55.097zM284.055 792.232c9.686-0.183 20.688-0.807 33.117-1.952l-10.286 49.947c-11.572 0.687-23.945 1.402-36.074 1.402l13.243-49.397zM256.754 893.912l14.058-52.283c-15.986 0.046-31.373-1.146-43.416-5.224l-14.971 52.76c12.204 4.212 27.972 5.064 44.328 4.746l-14.486 54.117c12.043-0.321 26.045-1.264 42.246-3.051l11.7-53.063c-2.65 0.157-5.36 0.327-8.113 0.498-10.111 0.633-20.837 1.282-31.347 1.498zM189.198 861.153c0.044 0.42 0.091 0.865 0.17 1.344 1.757 13.61 10.17 22.204 22.985 26.65l-15.644 55.171c-21.086-5.59-25.514-16.66-23.413-29.17l15.815-54.759c0.033 0.247 0.059 0.501 0.087 0.765zM97.616 737.518l-13.244 53.067c12.558 12.097 26.444 22.27 39.43 29.739l14.081-50.438-0.073-0.044c-13.693-8.155-28.043-20.065-40.193-32.324zM356.186 676.887c-4.181-1.196-8.492 0.622-9.75 4.080l-60.426 257.122c-2.821 8.198 2.954 17.276 12.735 20.144 9.916 2.922 20.122-1.694 22.468-10.166l40.733-262.738c0.988-3.564-1.512-7.305-5.693-8.501l-0.066 0.060zM176.51 932.612l17.786-56.913c-2.571-3.803-3.3-8.432-3.857-13.93-0.043-0.733-0.171-4.353-0.3-4.994l-16.844 58.373c-1.071 6.369-0.429 12.378 3.214 17.464zM190.182 856.586l13.458-46.511c0.643 6.278 2.871 11.324 6.343 15.448l14.058-44.953c-5.272-4.536-7.286-10.081-7.244-16.13l-12.3 42.615c-4.929-6.186-10.501-11.364-19.073-16.358l-13.115 50.864c8.786 4.628 14.572 9.302 17.872 14.938v0.086zM130.865 887.567c10.371 3.483 19.843 6.095 27.258 9.073l14.186-55.079c-6.386-3.346-14.444-6.691-24.258-10.264l-17.186 56.271zM163.481 780.983c9.128 3.3 16.2 6.415 21.943 9.715l13.195-51.187c-5.915-2.153-12.895-4.259-20.395-6.688l-14.743 48.16zM239.598 893.708c5.572 0.275 11.401 0.315 17.229 0.224l13.985-52.303c-5.615 0-11.156-0.068-16.471-0.435l-14.701 52.559-0.043-0.046zM284.514 944.979l7.757-33.858 3.943-19.205c-12.386 0.687-26.088 1.768-39.46 1.997l-14.486 54.117c12.043-0.321 26.045-1.264 42.246-3.051zM306.886 840.227l10.286-49.947c-12.429 1.146-23.431 1.769-33.117 1.952l-13.243 49.397c12.129 0 24.502-0.715 36.074-1.402zM109.873 688.166c6.043 9.394 14.483 16.745 23.269 22.931 8.872 6.187 18.43 10.998 28.202 14.893s19.801 6.736 29.872 9.76c5.014 1.558 10.072 3.161 15.043 5.453 2.486 1.146 4.929 2.52 7.2 4.399 2.229 1.787 4.543 4.353 5.229 7.698 0.729 3.299 0 6.186-0.3 8.752-0.386 2.566-0.472 4.994 0.129 7.331 1.243 4.628 4.886 8.982 8.786 11.823 8.358 5.636 18.858 7.011 28.715 7.881 20.144 1.329 40.244-0.779 60.473-2.245h0.086l4.714-0.275-1.114 4.766-35.744 153.645 32.024-151.088c-20.186 0.871-39.525 2.3-60.311 0.33-10.286-1.329-21.129-2.796-30.858-9.577-4.672-3.666-8.657-8.432-10.243-14.664-1.586-6.323 1.414-11.914 0.514-16.221-0.9-4.353-5.872-7.652-10.329-9.898-4.628-2.337-9.6-4.033-14.529-5.728-9.943-3.299-20.015-6.415-29.83-10.631s-19.329-9.348-28.158-15.809c-8.743-6.461-17.101-14.022-22.929-23.599l0.089 0.072zM306.833 840.18c-11.572 0.688-23.958 1.421-36.087 1.421l-13.992 52.312c13.372-0.275 27.031-1.264 39.46-1.997l10.619-51.735zM212.425 889.166l14.971-52.76c-13.244-4.491-21.528-15.511-22.899-29.35l-14.38 49.516c0.428 2.2-4.594 23.823 22.236 32.575l0.073 0.019z" />
<glyph unicode="&#xe932;" glyph-name="psel-coins" d="M388.8 639.467c77.866-0.533 158.933-8.533 237.333-34.667 44.798-14.933 87.998-34.133 119.467-71.467 29.869-35.2 29.331-75.2-1.6-109.333-33.069-36.267-76.8-55.467-122.134-69.333-101.866-31.467-205.866-40.536-312-30.934-63.466 5.867-125.866 15.467-185.599 38.934-32.534 12.8-64.534 27.733-90.134 52.266-44.267 42.667-43.733 90.667 2.133 132.267 33.6 29.867 73.6 47.467 115.733 60.8 75.733 23.467 153.6 30.934 236.8 31.467zM386.667 703.466c-10.133-0.533-25.6 1.067-41.067-1.6-2.666-0.533-6.4 0-9.066 1.067-37.334 19.2-70.934 43.2-78.934 88.533-4.266 24.533 6.934 45.333 22.4 62.933 25.6 29.867 59.734 46.934 95.467 61.334 57.067 22.933 117.333 33.067 178.667 38.933 38.4 3.733 76.8 6.4 115.735 4.267 83.731-4.8 166.931-13.333 245.331-47.467 33.069-14.4 65.069-30.933 88-60.267 32.531-42.133 24.531-83.733-14.4-118.4s-85.869-52.266-134.931-66.133c-44.8-12.8-91.2-18.133-137.069-24-10.131-1.067-19.2 1.6-28.269 5.333-58.131 25.067-119.464 38.934-181.864 47.467-38.4 4.8-76.267 9.067-120 8zM387.2-64c-92.8 1.069-180.8 11.731-265.6 43.2-32 11.731-62.4 28.269-87.467 51.731-22.4 21.338-34.667 46.4-33.6 77.869 0.533 14.931 0 30.4 0 45.331 0 7.469 0.533 12.269 9.6 5.869 53.867-38.4 115.2-60.8 179.2-74.669 81.6-18.131 164.8-25.062 248.533-19.731 56.533 3.731 113.067 11.2 168 25.6 53.864 14.4 106.133 34.131 152.533 67.2 2.669 1.6 5.331 6.4 9.069 3.2 1.6-1.6 1.6-5.869 1.6-8.531 0-13.338-1.069-26.669 0-40 3.2-42.138-17.069-72-49.069-96-34.131-25.6-73.6-40.538-114.133-52.269-73.067-20.269-147.2-27.731-218.667-28.8zM382.4 128.531c-80.533-0.531-159.467 9.6-236.267 34.138-37.866 12.262-73.6 27.731-104.533 53.331-27.2 22.4-43.2 50.131-41.067 86.4 0.533 14.4 0.533 29.334 0 43.734 0 9.066 3.2 10.133 10.133 5.333 71.466-50.667 153.066-71.467 237.866-85.336 72.534-11.731 145.067-12.8 217.6-6.931 88.534 7.469 174.398 25.6 253.867 67.2 13.869 6.934 26.131 16.534 38.931 25.067 6.4 4.267 9.069 4.8 9.069-4.267-0.531-21.866 0.531-43.731-0.531-65.069-1.069-20.262-11.738-36.8-25.069-51.731-28.8-30.931-65.6-48-104-62.4-82.667-30.4-169.067-37.869-256-39.469zM1023.469 633.599c4.8-35.2-5.338-65.066-31.469-89.6-17.069-16.533-36.8-29.333-58.131-38.933-28.269-13.333-58.138-24-88.538-31.467-10.131-2.666-13.331 0.534-14.4 10.667-2.662 34.667-13.331 65.6-37.862 91.2-8 8.533-6.4 11.2 7.462 13.867 34.138 6.933 68.269 14.4 101.338 26.133 38.931 13.867 76.262 30.933 110.4 54.4 9.062 6.4 11.2 4.267 10.662-5.867 0-10.133 0.538-20.266 0.538-30.4zM831.469 341.866c0 16.533 0 33.066 0 49.066 0 8 2.662 12.267 11.2 14.934 59.731 17.066 118.931 35.2 170.131 72.533 6.931 4.8 10.669 5.333 10.669-5.333-0.538-21.867 1.6-43.734-1.069-65.067-4.269-34.133-26.669-57.067-53.869-75.733-38.4-26.135-81.6-40.535-126.4-51.197-9.6-2.138-10.662 2.662-10.662 9.6 0 17.062 0 34.131 0 51.197z" />
<glyph unicode="&#xe933;" glyph-name="psel-thumb-down" horiz-adv-x="956" d="M440.538 47.186l216.897 216.248c14.511 14.445 22.749 34.352 22.749 55.040v389.947c0 42.938-35.3 78.068-78.444 78.068h-352.603c-31.377 0-59.617-18.736-71.776-47.231l-127.863-297.047c-33.339-77.287 23.533-163.161 107.86-163.161h221.603l-37.261-178.773c-3.922-19.517 1.961-39.424 16.081-53.48 23.141-22.637 60.009-22.637 82.758 0.389zM837.461 786.489c-43.145 0-78.445-35.13-78.445-78.068v-312.27c0-42.937 35.301-78.068 78.445-78.068s78.445 35.131 78.445 78.068v312.27c0 42.938-35.301 78.068-78.445 78.068z" />
<glyph unicode="&#xe934;" glyph-name="psel-edit" d="M808.006 846.167c-38.029 38.028-99.686 38.028-137.709 0l-517.089-517.087c-5.488-5.487-9.336-12.396-11.114-19.954l-55.643-236.48c-3.311-14.067 0.894-28.851 11.114-39.066 10.22-10.221 24.999-14.426 39.068-11.117l236.484 55.642c7.555 1.779 14.463 5.626 19.951 11.117l517.090 517.085c38.022 38.028 38.022 99.683 0 137.71v0l-102.15 102.149zM729.312 787.148c5.434 5.432 14.24 5.433 19.674 0l102.15-102.149c5.434-5.432 5.434-14.24 0-19.672l-508.693-508.693-159.306-37.485 37.484 159.309 508.691 508.691zM595.817 106.688c-22.723 0-41.143-19.104-41.143-42.669s18.42-42.662 41.143-42.662h301.713c22.726 0 41.146 19.098 41.146 42.662s-18.419 42.669-41.146 42.669h-301.713z" />
<glyph unicode="&#xe935;" glyph-name="psel-combi-boost" d="M938.643 604.735l-1.453-6.367-662.572-534.367h-9.222l112.127 369.796h-292.211l120.865 398.204h416.473l-67.956-227.265h383.949z" />
<glyph unicode="&#xe936;" glyph-name="psel-settings" d="M399.055 785.861c28.747 118.408 197.143 118.408 225.888 0 4.937-20.331 28.233-29.979 46.097-19.093 104.051 63.401 223.13-55.675 159.727-159.728-10.884-17.866-1.237-41.159 19.093-46.095 118.409-28.747 118.409-197.143 0-225.888-20.331-4.937-29.978-28.233-19.093-46.097 63.403-104.051-55.676-223.13-159.727-159.727-17.865 10.884-41.161 1.237-46.097-19.093-28.745-118.409-197.141-118.409-225.888 0-4.936 20.331-28.228 29.978-46.094 19.093-104.054-63.403-223.129 55.676-159.728 159.727 10.886 17.865 1.238 41.161-19.093 46.097-118.408 28.745-118.408 197.141 0 225.888 20.331 4.936 29.979 28.228 19.093 46.095-63.401 104.053 55.675 223.129 159.729 159.728 17.866-10.886 41.158-1.238 46.094 19.093zM542.020 765.729c-7.642 31.473-52.399 31.473-60.041 0-18.569-76.49-106.203-112.79-173.42-71.833-27.657 16.852-59.307-14.798-42.455-42.455 40.957-67.217 4.657-154.852-71.833-173.421-31.472-7.642-31.472-52.399 0-60.041 76.49-18.569 112.789-106.202 71.833-173.419-16.852-27.661 14.798-59.307 42.455-42.458 67.217 40.956 154.852 4.659 173.42-71.834 7.642-31.471 52.399-31.471 60.041 0 18.569 76.493 106.202 112.789 173.419 71.834 27.661-16.849 59.307 14.797 42.458 42.458-40.956 67.217-4.659 154.85 71.834 173.419 31.471 7.642 31.471 52.399 0 60.041-76.493 18.569-112.789 106.203-71.834 173.421 16.849 27.657-14.797 59.307-42.458 42.455-67.217-40.956-154.85-4.657-173.419 71.833zM512 533.333c-47.13 0-85.333-38.204-85.333-85.333s38.204-85.333 85.333-85.333c47.13 0 85.333 38.204 85.333 85.333s-38.204 85.333-85.333 85.333zM341.333 448c0 94.257 76.41 170.667 170.667 170.667 94.255 0 170.667-76.41 170.667-170.667 0-94.255-76.412-170.667-170.667-170.667-94.257 0-170.667 76.412-170.667 170.667z" />
<glyph unicode="&#xe937;" glyph-name="psel-support" d="M0 448c0 282.788 229.212 512 512 512s512-229.212 512-512c0-282.732-229.207-512-512-512-282.791 0-512 229.268-512 512zM181.618 718.021c-60.181-73.549-96.285-167.565-96.285-270.021s36.122-196.49 96.328-270.054l123.788 123.791c-29.311 41.303-46.541 91.781-46.541 146.287 0 54.485 17.217 104.945 46.508 146.237l-123.798 123.76zM241.956 778.363l123.81-123.771c41.281 29.262 91.717 46.46 146.173 46.46 54.487 0 104.959-17.219 146.263-46.515l123.858 123.814c-73.554 60.199-167.588 96.315-270.060 96.315-102.467 0-196.492-36.111-270.044-96.304zM842.394 718.007l-123.853-123.812c29.271-41.278 46.479-91.713 46.479-146.171 0-54.465-17.213-104.907-46.49-146.19l123.843-123.848c60.186 73.554 96.292 167.572 96.292 270.013 0 102.45-36.096 196.461-96.271 270.007zM782.034 117.647l-123.848 123.848c-41.303-29.286-91.766-46.505-146.247-46.505-54.436 0-104.855 17.188-146.126 46.428l-123.807-123.807c73.545-60.175 167.551-96.276 269.994-96.276 102.461 0 196.485 36.116 270.034 96.312zM511.939 615.719c-92.628 0-167.697-75.069-167.697-167.695 0-92.63 75.069-167.699 167.697-167.699 92.641 0 167.746 75.085 167.746 167.699s-75.105 167.695-167.746 167.695z" />
<glyph unicode="&#xe938;" glyph-name="psel-sports-outlined" d="M480 768v-152.329c-78.961-14.978-138.667-84.352-138.667-167.671s59.706-152.691 138.667-167.671v-152.329h-394.667c-11.782 0-21.333 9.553-21.333 21.333v85.333h106.667c23.564 0 42.667 19.102 42.667 42.667v341.333c0 23.564-19.103 42.667-42.667 42.667h-106.667v85.333c0 11.782 9.551 21.333 21.333 21.333h394.667zM64 298.667v298.667h85.333v-298.667h-85.333zM0 746.667v-597.333c0-47.13 38.205-85.333 85.333-85.333h853.333c47.13 0 85.333 38.204 85.333 85.333v597.333c0 47.128-38.204 85.333-85.333 85.333h-853.333c-47.128 0-85.333-38.205-85.333-85.333zM960 661.333h-106.667c-23.565 0-42.667-19.103-42.667-42.667v-341.333c0-23.565 19.102-42.667 42.667-42.667h106.667v-85.333c0-11.78-9.553-21.333-21.333-21.333h-394.667v152.329c78.959 14.98 138.667 84.352 138.667 167.671s-59.708 152.693-138.667 167.671v152.329h394.667c11.78 0 21.333-9.551 21.333-21.333v-85.333zM960 298.667h-85.333v298.667h85.333v-298.667zM512 341.333c-58.91 0-106.667 47.757-106.667 106.667s47.757 106.667 106.667 106.667c58.91 0 106.667-47.757 106.667-106.667s-47.757-106.667-106.667-106.667z" />
<glyph unicode="&#xe939;" glyph-name="psel-sports-filled" d="M85.333 832c-47.128 0-85.333-38.205-85.333-85.333v-85.333h170.667c23.564 0 42.667-19.103 42.667-42.667v-341.333c0-23.565-19.103-42.667-42.667-42.667h-170.667v-85.333c0-47.13 38.205-85.333 85.333-85.333h394.667v216.329c-78.961 14.98-138.667 84.352-138.667 167.671s59.706 152.693 138.667 167.671v216.329h-394.667zM544 832v-216.329c78.959-14.978 138.667-84.352 138.667-167.671s-59.708-152.691-138.667-167.671v-216.329h394.667c47.13 0 85.333 38.204 85.333 85.333v85.333h-170.667c-23.565 0-42.667 19.102-42.667 42.667v341.333c0 23.564 19.102 42.667 42.667 42.667h170.667v85.333c0 47.128-38.204 85.333-85.333 85.333h-394.667zM1024 597.333h-149.333v-298.667h149.333v298.667zM0 298.667h149.333v298.667h-149.333v-298.667zM512 341.333c58.91 0 106.667 47.757 106.667 106.667s-47.757 106.667-106.667 106.667c-58.91 0-106.667-47.757-106.667-106.667s47.757-106.667 106.667-106.667z" />
<glyph unicode="&#xe93a;" glyph-name="psel-live-outlined" d="M672 106.667c17.673 0 32-14.327 32-32s-14.327-32-32-32h-320c-17.673 0-32 14.327-32 32s14.327 32 32 32h320zM938.667 768c11.78 0 21.333-9.551 21.333-21.333v-512c0-11.78-9.553-21.333-21.333-21.333h-853.333c-11.782 0-21.333 9.553-21.333 21.333v512c0 11.782 9.551 21.333 21.333 21.333h853.333zM85.333 832c-47.128 0-85.333-38.205-85.333-85.333v-512c0-47.13 38.205-85.333 85.333-85.333h853.333c47.13 0 85.333 38.204 85.333 85.333v512c0 47.128-38.204 85.333-85.333 85.333h-853.333zM181.381 597.333h72.004l-31.425-157.564h96.412l-11.289-55.77h-168.416l42.714 213.333zM369.685 597.333h72.005l-42.715-213.333h-72.004l42.714 213.333zM704.567 597.333l-133.026-213.333h-70.784l-47.595 213.333h73.835l26.543-124.343 77.193 124.343h73.835zM771.533 543.086l-4.885-24.989h90.313l-10.372-51.81h-90.615l-5.491-28.041h107.089l-10.982-54.246h-177.57l42.714 213.333h173.602l-10.982-54.248h-102.818z" />
<glyph unicode="&#xe93b;" glyph-name="psel-live-filled" d="M704 74.667c0-17.673-14.327-32-32-32h-320c-17.673 0-32 14.327-32 32s14.327 32 32 32h320c17.673 0 32-14.327 32-32zM85.333 832h853.333c47.13 0 85.333-38.205 85.333-85.333v-512c0-47.13-38.204-85.333-85.333-85.333h-853.333c-47.128 0-85.333 38.204-85.333 85.333v512c0 47.128 38.205 85.333 85.333 85.333zM454.524 634.846c-22.234 11.971-49.19-4.131-49.19-29.382v-229.597c0-25.25 26.957-41.353 49.19-29.38l209.361 112.73c11.567 6.234 18.782 18.308 18.782 31.45s-7.215 25.216-18.782 31.45l-209.361 112.73z" />
<glyph unicode="&#xe93c;" glyph-name="psel-challenge-outlined" d="M331.343 448.61l-166.504 383.39h384.623l49.954-52.751 247.258-2.355 177.327-340.529v-52.753l-274.731-290.133-298.876-3.767-50.784-48.986h-399.61l331.343 407.885zM262.409 768l143.127-329.562-271.089-333.713h239.328l50.447 48.661 297.183 3.746 238.596 251.972v11.593l-152.35 292.564-236.019 2.248-49.707 52.49h-259.515zM765.333 616.727l84.821-151.87v-67.93l-140.911-138.667h-376.377l149.57 188.258-78.176 170.208h361.073zM557.009 437.495l-91.554-115.234h217.579l103.121 101.478v24.457l-58.385 104.531h-223.684l52.924-115.232z" />
<glyph unicode="&#xe93d;" glyph-name="psel-challenge-filled" d="M331.343 448.61l-331.343-407.885h399.61l50.784 48.982 298.879 3.767 274.731 290.133v52.753l-177.327 340.529-247.258 2.355-49.954 52.751h-384.623l166.504-383.39zM486.391 568.227h256.002l66.816-119.63v-27.989l-118.016-116.139h-249.011l104.781 131.883-60.57 131.875z" />
<glyph unicode="&#xe93e;" glyph-name="psel-poker-outlined" d="M765.867 853.333c23.279 0 44.8-20.701 44.8-49.628v-711.409c0-28.928-21.521-49.63-44.8-49.63h-507.733c-23.278 0-44.8 20.702-44.8 49.63v711.409c0 28.927 21.522 49.628 44.8 49.628h507.733zM765.867 917.333h-507.733c-64.427 0-108.8-55.451-108.8-113.628v-711.409c0-58.18 44.373-113.63 108.8-113.63h507.733c64.427 0 108.8 55.45 108.8 113.63v711.409c0 58.177-44.373 113.628-108.8 113.628zM536.081 650.942c-6.562 6.58-15.194 10.391-24.516 10.391-8.977 0-17.954-3.811-24.171-10.391 0 0-114.292-114.976-115.329-116.016-19.682-21.471-30.732-49.178-30.732-78.269 0-30.477 12.087-59.567 33.84-82.078 22.443-22.511 51.796-33.937 81.488-33.937 6.908 0 13.811 1.382 20.719 2.769v-39.479h-10.014c-18.991 0-34.53-15.241-34.53-34.633 0-19.046 15.539-34.633 34.53-34.633h89.088c18.991 0 34.53 15.586 34.53 34.633 0 19.392-15.539 34.633-34.53 34.633h-10.014v39.134c36.254-6.234 74.927 4.847 102.208 31.514 44.54 44.676 45.577 115.674 1.724 161.731l-114.291 114.632z" />
<glyph unicode="&#xe93f;" glyph-name="psel-poker-filled" horiz-adv-x="983" d="M559.6 4.534l218.96-30.773c55.681-7.823 100.762 34.71 107.831 84.988l86.405 614.825c7.066 50.279-24.547 103.591-80.224 111.416l-183.755 25.825 114.442-649.023c9.695-55.001-23.011-114.823-83.919-125.563l-179.741-31.695zM109.964 798.679c-34.975-6.167-57.142-41.547-50.694-78.112l118.594-672.578c6.448-36.565 39.378-62.231 74.353-56.062l480.018 84.64c34.976 6.164 57.143 41.546 50.696 78.111l-118.596 672.579c-6.447 36.566-39.375 62.231-74.351 56.064l-480.020-84.641zM385.138 639.238c8.815 1.554 17.612-0.61 24.912-5.737l127.16-89.322c49.14-36.233 59.994-103.526 25.33-153.19-21.34-29.757-56.058-46.682-91.374-46.834l6.521-36.995 9.47 1.667c17.957 3.166 35.185-8.651 38.42-26.984 3.174-18.006-8.917-35.332-26.874-38.498l-84.222-14.852c-17.956-3.166-35.244 8.978-38.42 26.989-3.233 18.334 8.917 35.332 26.871 38.498l9.467 1.667-6.583 37.327c-6.298-2.462-12.595-4.923-19.124-6.074-28.074-4.952-57.729 0.963-82.699 18.502-24.319 17.658-40.595 43.143-45.676 71.954-4.85 27.505 0.978 55.542 16.007 79.122l89.694 128.908c4.779 7.257 12.632 12.357 21.117 13.853z" />
<glyph unicode="&#xe940;" glyph-name="psel-turf-outlined" horiz-adv-x="853" d="M550.993 728.596c-15.411 0-27.942-12.53-27.942-27.921s12.531-27.961 27.942-27.961c15.411 0 27.959 12.55 27.959 27.961s-12.548 27.921-27.959 27.921zM848.836 542.263c-2.035 13.083-9.728 32.263-51.422 75.319-22.34 23.087-52.804 51.285-90.534 83.844-50.556 43.609-101.308 83.843-118.75 97.538-20.582 132.011-97.382 158.571-100.655 159.636-7.659 2.506-16.026 1.598-22.874-2.467-6.946-4.065-11.797-10.912-13.299-18.766l-19.021-97.775c-12.076-1.697-24.508-4.46-37.038-8.209-18.785-0.71-80.884-6.828-151.369-54.067-47.338-31.69-89.112-75.654-124.157-130.669-42.938-67.386-75.793-151.702-97.696-250.565-1.894-8.444 0.158-17.126 5.663-23.795 5.466-6.669 13.576-10.441 22.239-10.223 8.209 0.179 33.15-0.572 52.37-6.195l388.654-411.089c5.248-5.564 12.646-8.759 20.322-8.759 0.61 0 1.203 0 1.835 0.038 8.329 0.572 15.906 4.774 20.817 11.503 3.375 4.659 82.483 115.435 82.483 230.733 0 97.698-61.449 201.054-82.837 234.069l11.703 60.164c4.497-1.067 9.037-2.035 13.534-2.88 21.312-3.908 41.323-5.013 55.765-5.154 1.737-7.159 3.593-13.888 5.547-20.087 11.78-37.453 27.861-58.684 49.152-64.858 34.197-9.907 71.194 12.804 84.809 22.413 18.569-11.345 32.7-4.634 38.144-1.003 10.991 7.279 26.739 28.019 38.302 50.436 11.383 22.118 23.795 55.859 18.351 90.886l-0.038-0.020zM706.368 458.24l3.806-17.796c-9.668-5.133-18.645-7.953-23.757-7.501-1.873 2.193-7.458 9.907-13.675 30.349-4.873 16.043-7.458 31.138-7.872 33.626l-0.081 0.555c-2.287 14.562-15.569 24.879-30.208 23.501-4.817-0.397-118.319-8.841-149.615 55.348-6.767 13.852-23.522 19.633-37.372 12.885-6.711-3.276-11.763-8.959-14.187-16.023-2.428-7.064-1.975-14.641 1.301-21.37 11.998-24.628 31.334-44.498 57.519-59.158l-15.727-80.943c-1.459-7.381 0.196-15.194 4.54-21.427 0.789-1.126 79.424-114.449 79.424-212.028 0-29.086-7.104-89.033-53.594-169.011l-357.081 377.724c9.61 27.072 27.823 76.757 50.476 130.449 42.149 99.847 80.331 168.517 110.403 198.629 29.323 29.322 62.592 49.923 98.919 61.23 5.486 1.697 10.892 3.157 16.181 4.321l-1.519-25.692c-0.908-15.392 10.894-28.652 26.284-29.559h0.768c0.299-0.039 0.593-0.039 0.87-0.039 14.78 0 27.034 11.563 27.883 26.323l3.371 57.303 14.012 72.004c13.517-17.108 30.153-48.167 36.821-101.564 0.947-7.439 4.736-14.069 10.556-18.548l0.516-0.395c10.812-8.426 67.601-52.903 124.134-101.603 114.449-98.682 123.665-124.788 124.16-126.446 3.746-24.942-10.381-54.48-22.025-72.182-5.090 5.82-10.637 12.766-15.232 19.179-7.697 10.675-22.003 14.566-34.001 9.254-12.053-5.308-18.803-18.526-16.021-31.411l0.021 0.017zM219.072 683.646c-52.745-90.375-101.307-220.116-119.125-269.942-5.032 0.909-10.281 1.698-15.707 2.33 19.89 77.649 47.259 144.481 81.417 198.686 16.259 25.791 34.137 48.838 53.416 68.926z" />
<glyph unicode="&#xe941;" glyph-name="psel-turf-filled" horiz-adv-x="1067" d="M701.316 759.961l-39.991 41.996-11.157 83.428-62.835 44.558-29.995-115.55-57.997-12.436-99.988-29.996-53.994-75.992-125.984-315.962 391.953-417.954 77.995 175.979-6.003 91.989-33.152 95.991-46.839 89.988 25.498 83.989 106.487-9.997 24-41.993 13.995-42.001 81.993 27.998h33.997l41.997 73.993-9.813 77.337-220.164 174.634zM628.83 704.093c0 11.748 9.527 21.31 21.312 21.31 11.78 0 21.338-9.562 21.338-21.31 0-11.812-9.557-21.342-21.338-21.342s-21.312 9.53-21.312 21.342zM945.101 542.457c-1.783 11.466-9.122 30.090-50.244 72.554-22.562 23.31-53.278 51.744-91.302 84.552-52.053 44.902-103.987 86.022-122.295 100.364-19.529 131.734-94.426 157.888-97.677 158.95-5.845 1.906-12.19 1.25-17.468-1.876-5.282-3.092-8.998-8.312-10.155-14.31l-20.25-104.050c-10.594-1.25-25.186-3.812-42.308-9-16.213-0.5-78.927-5.562-150.668-53.65-47.182-31.59-88.834-75.46-123.83-130.39-43.058-67.618-76.054-152.297-98.084-251.753-1.436-6.404 0.156-13.094 4.312-18.155s10.406-7.936 16.966-7.812c9.436 0.218 36.714-0.751 57.056-7.121l395.202-418.018c4.032-4.279 9.66-6.686 15.501-6.686 0.469 0 0.909 0 1.378 0.030 6.345 0.439 12.156 3.627 15.906 8.785 3.341 4.621 82.27 114.795 82.27 229.751 0 99.959-65.118 206.477-84.365 235.789l13.807 71.023c6.562-1.749 13.376-3.311 20.437-4.625 23.842-4.378 45.871-5.218 60.804-5.124 1.655-7.343 3.878-16.188 6.75-25.25 11.187-35.558 25.937-55.556 45.086-61.116 36.058-10.441 76.681 19.055 83.836 24.555 16.717-12.343 29.060-7.684 34.965-3.746 10.125 6.716 25.434 27.119 36.463 48.495 11.063 21.495 23.155 54.148 17.907 87.835zM253.647 620.727c27.466 43.558 59.306 79.428 94.802 106.832-64.868-87.896-130.142-263.721-150.92-322.341-10.218 2.159-20.404 3.469-29.248 4.25 20.5 82.867 49.182 153.829 85.366 211.259zM874.483 450.249c-6.374 6.592-14.874 16.806-21.841 26.496-5.905 8.188-16.721 11.157-25.967 7.061-9.216-4.062-14.34-14.093-12.215-23.966l4.937-23.091c-11.75-6.933-26.432-12.873-35.247-10.526-2.402 1.498-9.749 10.368-17.31 35.243-5.559 18.283-8.277 35.405-8.277 35.593-1.749 11.123-11.878 18.995-23.095 17.933-1.216-0.094-124.109-10.624-158.541 59.996-5.188 10.624-17.933 14.998-28.527 9.842s-15.002-17.936-9.847-28.528c12.22-25.058 32.529-45.056 59.87-59.307l-16.934-87.117c-1.126-5.687 0.158-11.593 3.469-16.337 0.811-1.156 81.771-117.739 81.771-218.914 0-73.118-38.498-147.204-60.023-182.857l-371.242 392.704c8.218 23.309 27.778 77.461 52.744 136.64 43.088 102.049 82.302 172.417 113.394 203.54 30.529 30.528 65.242 51.994 103.143 63.806 9.873 3.062 18.688 5.062 25.997 6.312l-2.061-35.058c-0.687-11.78 8.282-21.872 20.062-22.56 0.405 0 0.845-0.032 1.25-0.032 11.213 0 20.621 8.75 21.278 20.092l3.439 58.556 16.964 87.208c2.436-2.376 4.996-5.094 7.561-8.156 14.626-17.466 33.587-50.558 40.9-109.020 0.717-5.656 3.627-10.75 8.128-14.216 0.623-0.5 63.369-49.12 126.545-103.55 119.488-103.020 127.612-129.516 128.145-132.142 4.902-31.526-15.377-68.241-28.467-85.644z" />
<glyph unicode="&#xe942;" glyph-name="psel-warning" d="M87.876 64c-8.383 0-16.005 2.068-22.864 6.195s-12.194 9.569-16.005 16.328c-3.811 6.753-5.907 14.070-6.288 21.955-0.381 7.88 1.715 15.575 6.288 23.081l422.989 720.592c4.573 7.506 10.48 13.136 17.72 16.889s14.671 5.629 22.295 5.629c7.619 0 15.053-1.876 22.292-5.629s13.143-9.383 17.72-16.889l422.989-720.592c4.572-7.506 6.666-15.201 6.287-23.081-0.384-7.885-2.478-15.201-6.287-21.955-3.814-6.758-9.149-12.201-16.005-16.328-6.861-4.127-14.484-6.195-22.866-6.195h-848.265zM166.758 154.076h690.499l-345.247 585.482-345.252-585.482zM512.010 199.112c12.954 0 23.813 4.316 32.579 12.948s13.148 19.328 13.148 32.092c0 12.759-4.383 23.455-13.148 32.087s-19.625 12.948-32.579 12.948c-12.958 0-23.819-4.316-32.584-12.948s-13.147-19.328-13.147-32.087c0-12.764 4.382-23.46 13.147-32.092s19.625-12.948 32.584-12.948zM512.010 334.223c12.954 0 23.813 4.316 32.579 12.948s13.148 19.328 13.148 32.087v135.114c0 12.761-4.383 23.457-13.148 32.089s-19.625 12.948-32.579 12.948c-12.958 0-23.819-4.316-32.584-12.948s-13.147-19.328-13.147-32.089v-135.114c0-12.759 4.382-23.455 13.147-32.087s19.625-12.948 32.584-12.948z" />
<glyph unicode="&#xe943;" glyph-name="psel-backspace" horiz-adv-x="1075" d="M171.766 235.479l7.467-7.736 3.47-3.436 101.33-106.061c4.403-4.726 9.009-9.513 15.608-16.251 3.481-3.748 7.366-7.731 13.194-13.568l1.865-2.053c2.421-2.683 3.033-3.354 4.148-4.454 13.41-14.029 29.556-26.317 47.222-35.768 17.701-9.416 36.602-15.923 56.115-19.338 17.913-3.118 36.009-4.803 54.149-5.038 4.081-0.123 6.156-0.179 8.724-0.241 5.373-0.133 9.916-0.2 14.337-0.2h293.59c6.692 0 11.96 0.113 23.501 0.451 11.505 0.148 23.194 0.911 34.898 2.284l0.082 0.010c6.262 0.737 12.524 1.649 18.765 2.734 19.517 3.41 38.395 9.928 55.997 19.328 17.69 9.405 33.889 21.719 47.954 36.46 13.972 14.746 25.656 31.549 34.729 49.905 8.986 18.785 15.16 38.441 18.509 58.716 2.954 19 4.531 37.888 4.756 56.817 0.251 8.535 0.379 16.538 0.379 24.264v351.399l-0.072 6.298c-0.102 9.127-0.164 13.213-0.317 18.527-0.215 18.37-1.792 37.255-4.695 55.939-3.4 20.595-9.574 40.249-18.376 58.651-9.175 18.744-20.91 35.622-34.924 50.299-14.054 14.73-30.254 27.044-47.995 36.475-17.551 9.373-36.429 15.89-55.916 19.298-17.879 3.23-36.147 4.926-54.456 5.043-10.86 0.324-16.128 0.438-22.82 0.438h-293.673c-4.422 0-8.964-0.067-14.337-0.198-2.568-0.062-4.644-0.12-9.201-0.252-17.604-0.105-35.839-1.802-53.85-5.062-19.336-3.38-38.238-9.889-55.875-19.272-17.73-9.485-33.876-21.77-47.918-36.443-0.495-0.472-1.337-1.392-5.284-5.81-5.012-4.951-9.504-9.546-13.831-14.187-6.675-6.806-10.817-11.103-15.385-16.024l-104.108-108.82c-1.311-1.317-2.634-2.671-4.174-4.263l-3.838-3.986c-4.095-4.167-6.703-6.883-9.601-10.065l-92.937-97.236c-0.486-0.501-0.749-0.772-1.011-1.043-0.308-0.319-0.614-0.64-1.279-1.337l-2.359-2.493c-2.227-2.367-3.161-3.355-4.223-4.461-3.813-3.992-5.768-6.087-7.963-8.627-7.745-7.92-15.021-16.328-21.786-25.177-6.533-7.248-11.814-15.636-15.603-24.789l-1.073-2.98c-6.837-22.198-6.837-46.084 0-68.284l1.158-3.185c3.841-9.108 9.094-17.49 15.542-24.801 7.053-8.96 14.531-17.546 22.406-25.723l3.385-3.615c1.928-2.053 2.732-2.903 3.939-4.168 1.202-1.249 2.104-2.202 4.308-4.541 2.278-2.417 3.361-3.564 4.694-4.946l93.395-97.93 9.262-9.472zM436.858 110.879c-10.514 1.838-20.822 5.361-30.626 10.568-9.755 5.228-18.613 12.022-25.694 19.43l-0.848 0.891-0.313 0.307-2.060 2.278-1.276 1.541-2.806 2.811c-5.612 5.622-8.642 8.745-11.070 11.361l-0.762 0.819-0.783 0.799c-6.39 6.528-10.438 10.742-14.145 14.72l-102.89 107.704-3.63 3.594-6.8 7.045-9.262 9.477zM376.201 145.577c0 0 0.001 0 0.082-0.087l-0.082 0.087zM223.895 304.225l-93.284 97.807c-1.003 1.044-1.829 1.915-4.074 4.301-2.173 2.304-3.335 3.533-4.81 5.069-0.922 0.968-1.566 1.649-3.335 3.528l-0.058 0.061-3.618 3.866-0.471 0.486c-5.895 6.124-11.506 12.564-16.809 19.302l-1.477 1.874-1.543 1.751c-0.695 3.692-0.711 7.514-0.046 11.211l1.678 1.862 2.094 2.739c4.678 6.118 9.692 11.91 15.007 17.345l1.834 1.876 1.716 1.986c0.722 0.835 1.44 1.644 5.015 5.387 1.384 1.441 2.61 2.74 4.761 5.027l1.010 1.071 1.099 1.159 0.804 0.84 1.038 1.070 94.585 98.996c1.845 2.026 3.596 3.868 7.362 7.699l0.323 0.328 4.041 4.197c1.327 1.372 2.346 2.413 3.286 3.357l0.587 0.591 105.565 110.356c3.799 4.092 7.322 7.756 13.764 14.325l0.758 0.773 0.738 0.792c3.378 3.624 7.030 7.368 11.381 11.665l1.895 1.872 4.062 4.542 0.775 0.859 0.238 0.249c7.863 8.217 16.777 14.975 26.431 20.152 9.769 5.186 20.083 8.699 30.402 10.503l0.504 0.090c13.274 2.402 26.597 3.624 39.165 3.7l0.979 0.006 0.979 0.028c4.538 0.132 6.448 0.184 8.808 0.242 4.909 0.119 8.726 0.173 12.259 0.173h293.673c5.386 0 9.631-0.083 20.28-0.4l0.998-0.030 0.998-0.007c13.42-0.085 26.793-1.33 39.823-3.685l0.476-0.084c10.511-1.839 20.787-5.371 30.418-10.512l0.143-0.077c9.564-5.085 18.468-11.813 26.301-20.025 7.762-8.131 14.479-17.667 19.855-28.569 5.14-10.826 8.837-22.512 10.931-35.013 2.253-14.604 3.461-29.3 3.63-43.419l0.005-0.706 0.020-0.706c0.128-4.548 0.189-8.028 0.292-17.065l0.067-5.829v-350.907c0-6.758-0.118-13.921-0.343-21.796l-0.020-0.717-0.010-0.722c-0.179-14.715-1.393-29.42-3.686-44.303-2.017-12.017-5.663-23.67-10.998-34.939-5.268-10.547-11.95-20.091-19.83-28.426-7.828-8.187-16.701-14.879-26.163-19.907l-0.143-0.077c-9.677-5.171-19.942-8.699-30.469-10.542-13.512-2.345-27.1-3.594-40.161-3.763l-0.696-0.005-0.701-0.020c-11.397-0.333-15.631-0.415-21.018-0.415h-293.59c-3.533 0-7.35 0.051-12.259 0.169-2.345 0.061-4.246 0.113-8.253 0.23l-0.719 0.020-0.719 0.010c-13.577 0.179-27.153 1.439-40.587 3.779zM768.543 572.054c10.665 10.664 10.665 27.953 0 38.617s-27.955 10.664-38.62 0l-124.047-124.051-124.054 124.051c-10.664 10.664-27.954 10.664-38.618 0s-10.664-27.953 0-38.617l124.051-124.051-124.051-124.049c-10.664-10.665-10.664-27.955 0-38.62s27.954-10.665 38.618 0l124.054 124.052 124.047-124.052c10.665-10.665 27.955-10.665 38.62 0s10.665 27.955 0 38.62l-124.052 124.049 124.052 124.051z" />
<glyph unicode="&#xe944;" glyph-name="psel-add-to-bet-filled" horiz-adv-x="1075" d="M69.923 707.040c-6.898 56.132 32.987 107.441 89.086 114.602l400.897 51.178c56.095 7.161 107.167-32.537 114.063-88.669l11.008-89.586h-236.121c-56.554 0-102.4-45.846-102.4-102.4v-371.917l-111.791-14.275c-56.099-7.163-107.167 32.538-114.065 88.668l-50.677 412.398zM397.084 540.422c0 56.554 45.846 102.4 102.4 102.4h403.969c56.55 0 102.4-45.846 102.4-102.4v-415.676c0-56.556-45.85-102.4-102.4-102.4h-403.969c-56.554 0-102.4 45.844-102.4 102.4v415.676zM740.145 487.711c0 21.208-17.193 38.4-38.4 38.4s-38.4-17.192-38.4-38.4v-116.658h-114.109c-21.212 0-38.402-17.188-38.402-38.4 0-21.207 17.19-38.4 38.402-38.4h114.109v-116.536c0-21.207 17.193-38.4 38.4-38.4s38.4 17.193 38.4 38.4v116.536h113.582c21.207 0 38.4 17.193 38.4 38.4 0 21.212-17.193 38.4-38.4 38.4h-113.582v116.658z" />
<glyph unicode="&#xe945;" glyph-name="psel-add-to-bet-outlined" horiz-adv-x="1152" d="M734.748 524.76c22.093 0 40-17.354 40-38.761v-107.998h107.232c22.093 0 40-17.354 40-38.76 0-21.404-17.907-38.761-40-38.761h-107.232v-107.898c0-21.408-17.907-38.758-40-38.758-22.086 0-39.994 17.35-39.994 38.758v107.898h-107.736c-22.090 0-39.997 17.357-39.997 38.761 0 21.407 17.907 38.76 39.997 38.76h107.736v107.998c0 21.407 17.907 38.761 39.994 38.761zM359.629 187.526l-72.77-7.334c-98.598-11.866-187.128 56.531-198.869 151.536l-44.027 356.239c-11.71 94.75 57.137 182.307 155.514 194.794l344.668 43.75c98.251 12.471 186.788-54.843 199.761-148.986l12.173-67.189h166.598c103.085 0 186.656-80.984 186.656-180.882v-380.571c0-99.898-83.571-180.883-186.656-180.883h-376.394c-103.087 0-186.655 80.986-186.655 180.883v38.643zM277.677 257.21l74.579 7.507c-0.518 4.941-0.784 9.952-0.784 15.021v266.54c0 80.294 49.597 145.385 148.792 169.616h173.594l-9.062 50.016c-1.21 9.755-3.853 18.982-7.712 27.505-17.148 37.906-58.195 61.863-102.55 56.233l-344.668-43.75c-54.328-6.896-93.044-55.568-86.477-108.711l44.027-356.239c6.568-53.145 55.933-90.636 110.26-83.737zM439.624 195.578v-46.694c0-57.088 47.753-103.36 106.66-103.36h376.394c58.906 0 106.662 46.272 106.662 103.36v380.571c0 57.085-47.757 103.361-106.662 103.361h-376.394c-58.906 0-106.66-46.276-106.66-103.361v-331.009l0.298-2.835-0.298-0.032z" />
</font>
</defs>
</svg>
